Dire Straits - Brothers In Arms (2014) / Japan LTD Mini LP SHM-CD [FLAC|Lossless]<Rock>

 
Автор Сообщение

sergej644 ®

Пол:

Стаж: 4 года 11 месяцев

Сообщений: 6035

Откуда: Soviet Union



Награды: Нет

Торрент-статистика

Создавать темы 18-Авг-2014 21:19

[Цитировать]

-Dire Straits - Brothers In Arms (2014) / Japan LTD Mini LP SHM-CD-Год: 2014
Жанр: Rock, Classic Rock
Страна: Japan
Label: Warner Bros. Records
Каталожный №: UICY-40055
Продолжительность: 00:47:44
Кодек: FLAC
Битрейт: Lossless
Тип рипа: tracks+.cue
Наличие сканов: Да
Треклист:
1. So Far Away 3:59
2. Money For Nothing Vocals [Uncredited] – Sting 7:04
3. Walk Of Life 4:07
4. Your Latest Trick 4:46
5. Why Worry 5:22
6. Ride Across The River 6:57
7. The Man's Too Strong 4:36
8. One World 3:36
9. Brothers In Arms 6:56

Отчёт ЕАС&#58;

Exact Audio Copy V1.0 beta 3 from 29. August 2011
EAC extraction logfile from 28. May 2014, 19:13
Dire Straitst / Brothers In Arms
Used drive  : PLEXTOR DVDR   PX-760A   Adapter: 1  ID: 0
Read mode               : Secure
Utilize accurate stream : Yes
Defeat audio cache      : Yes
Make use of C2 pointers : No
Read offset correction                      : 30
Overread into Lead-In and Lead-Out          : No
Fill up missing offset samples with silence : Yes
Delete leading and trailing silent blocks   : No
Null samples used in CRC calculations       : Yes
Used interface                              : Native Win32 interface for Win NT & 2000
Gap handling                                : Appended to previous track
Used output format              : User Defined Encoder
Selected bitrate                : 128 kBit/s
Quality                         : High
Add ID3 tag                     : No
Command line compressor         : C:\Program Files (x86)\Exact Audio Copy\Flac\flac.exe
Additional command line options : -V -8 -T "Genre=%genre%" -T "Artist=%artist%" -T "Title=%title%" -T "Album=%albumtitle%" -T "Date=%year%" -T "Tracknumber=%tracknr%" -T "Comment=%comment%" %source%
TOC of the extracted CD
     Track |   Start  |  Length  | Start sector | End sector
    ---------------------------------------------------------
        1  |  0:00.00 |  4:02.32 |         0    |    18181
        2  |  4:02.32 |  7:04.18 |     18182    |    49999
        3  | 11:06.50 |  4:10.72 |     50000    |    68821
        4  | 15:17.47 |  4:43.13 |     68822    |    90059
        5  | 20:00.60 |  5:24.30 |     90060    |   114389
        6  | 25:25.15 |  6:58.60 |    114390    |   145799
        7  | 32:24.00 |  4:40.40 |    145800    |   166839
        8  | 37:04.40 |  3:41.02 |    166840    |   183416
        9  | 40:45.42 |  6:58.33 |    183417    |   214799
Track  1
     Filename D:\Dire Straits - Brothers In Arms (Japan LTD Mini LP SHM-CD UICY-76099 )\01. Dire Straits - So Far Away.wav
     Pre-gap length  0:00:02.00
     Peak level 92.2 %
     Extraction speed 2.2 X
     Track quality 100.0 %
     Test CRC 3AF50665
     Copy CRC 3AF50665
     Track not present in AccurateRip database
     Copy OK
Track  2
     Filename D:\Dire Straits - Brothers In Arms (Japan LTD Mini LP SHM-CD UICY-76099 )\02. Dire Straits - Money For Nothing.wav
     Peak level 99.2 %
     Extraction speed 2.3 X
     Track quality 100.0 %
     Test CRC 0C195F5A
     Copy CRC 0C195F5A
     Track not present in AccurateRip database
     Copy OK
Track  3
     Filename D:\Dire Straits - Brothers In Arms (Japan LTD Mini LP SHM-CD UICY-76099 )\03. Dire Straits - Walk Of Life.wav
     Peak level 76.8 %
     Extraction speed 1.9 X
     Track quality 99.9 %
     Test CRC 0013D027
     Copy CRC 0013D027
     Track not present in AccurateRip database
     Copy OK
Track  4
     Filename D:\Dire Straits - Brothers In Arms (Japan LTD Mini LP SHM-CD UICY-76099 )\04. Dire Straits - Your Latest Trick.wav
     Peak level 67.0 %
     Extraction speed 2.0 X
     Track quality 99.9 %
     Test CRC CF5E09F6
     Copy CRC CF5E09F6
     Track not present in AccurateRip database
     Copy OK
Track  5
     Filename D:\Dire Straits - Brothers In Arms (Japan LTD Mini LP SHM-CD UICY-76099 )\05. Dire Straits - Why Worry.wav
     Peak level 46.0 %
     Extraction speed 2.2 X
     Track quality 100.0 %
     Test CRC 04B8AC07
     Copy CRC 04B8AC07
     Track not present in AccurateRip database
     Copy OK
Track  6
     Filename D:\Dire Straits - Brothers In Arms (Japan LTD Mini LP SHM-CD UICY-76099 )\06. Dire Straits - Ride Across The River.wav
     Peak level 85.5 %
     Extraction speed 2.3 X
     Track quality 100.0 %
     Test CRC D0E55856
     Copy CRC D0E55856
     Track not present in AccurateRip database
     Copy OK
Track  7
     Filename D:\Dire Straits - Brothers In Arms (Japan LTD Mini LP SHM-CD UICY-76099 )\07. Dire Straits - The Man's Too Strong.wav
     Peak level 81.8 %
     Extraction speed 2.0 X
     Track quality 99.9 %
     Test CRC CD876E1C
     Copy CRC CD876E1C
     Track not present in AccurateRip database
     Copy OK
Track  8
     Filename D:\Dire Straits - Brothers In Arms (Japan LTD Mini LP SHM-CD UICY-76099 )\08. Dire Straits - One World.wav
     Peak level 85.5 %
     Extraction speed 2.1 X
     Track quality 100.0 %
     Test CRC 9DB2F04E
     Copy CRC 9DB2F04E
     Track not present in AccurateRip database
     Copy OK
Track  9
     Filename D:\Dire Straits - Brothers In Arms (Japan LTD Mini LP SHM-CD UICY-76099 )\09. Dire Straits - Brothers In Arms.wav
     Peak level 76.4 %
     Extraction speed 2.3 X
     Track quality 100.0 %
     Test CRC 2E910376
     Copy CRC 2E910376
     Track not present in AccurateRip database
     Copy OK
None of the tracks are present in the AccurateRip database
No errors occurred
End of status report
==== Log checksum 83EC66E6CA82AB7101B1891A1C56137FF8E28138926D986134E124E8DBAA8846 ====

Отчёт auCDtect Task manager&#58;

-----------------------
DON'T MODIFY THIS FILE
-----------------------
PERFORMER: auCDtect Task Manager, ver. 1.6.0 RC1 build 1.6.0.1
Copyright (c) 2008-2010 y-soft. All rights reserved
http://y-soft.org
ANALYZER: auCDtect: CD records authenticity detector, version 0.8.2
Copyright (c) 2004 Oleg Berngardt. All rights reserved.
Copyright (c) 2004 Alexander Djourik. All rights reserved.
FILE: 01. Dire Straits - So Far Away.flac
  Size: 25361044 Hash: 23CBB6971C6348C28D2380B0FEC5ADE5 Accuracy: -m0
  Conclusion: CDDA 100%
  Signature: C621631600B706E28E021BBD82E0E9932AD083C5
FILE: 02. Dire Straits - Money For Nothing.flac
  Size: 42321005 Hash: D048EB9C2EE0176088E507A1DD4B9D98 Accuracy: -m0
  Conclusion: CDDA 99%
  Signature: 89761C5C2FF3F27261FCFD8D81F40C08BA64601C
FILE: 03. Dire Straits - Walk Of Life.flac
  Size: 26737978 Hash: 265D1AA58B841115C2000D4067750765 Accuracy: -m0
  Conclusion: CDDA 100%
  Signature: FB6506829727A9149877BC841FAA54CF8153F5AA
FILE: 04. Dire Straits - Your Latest Trick.flac
  Size: 26150293 Hash: E90E3CC72CFF611C40C781F3B3C725CA Accuracy: -m0
  Conclusion: CDDA 100%
  Signature: 0AAC2186857B5045B0F6F7B806079A20622B934C
FILE: 05. Dire Straits - Why Worry.flac
  Size: 24392516 Hash: 3E8E4CE0CA715722CE833C9F74A596B3 Accuracy: -m0
  Conclusion: CDDA 100%
  Signature: 27700A07462EF57911A51726742672CCAFEC3BA7
FILE: 06. Dire Straits - Ride Across The River.flac
  Size: 37311074 Hash: B67D5612982C64B0C9CBC036B8D2C605 Accuracy: -m0
  Conclusion: CDDA 100%
  Signature: 1C38E7E2CEE988E9695C58DC75F2D3A27DDB095A
FILE: 07. Dire Straits - The Man's Too Strong.flac
  Size: 26302382 Hash: C1C6D0ACD370CB7302A196461077A0AC Accuracy: -m0
  Conclusion: CDDA 100%
  Signature: E162E01FFA7BB88A74F95E579F78C1E666F86D62
FILE: 08. Dire Straits - One World.flac
  Size: 21772814 Hash: 9C6ECDBB21686DEA48FF841882AF5226 Accuracy: -m0
  Conclusion: CDDA 100%
  Signature: C856586D836E1A560AC9191C1D95B12651987144
FILE: 09. Dire Straits - Brothers In Arms.flac
  Size: 34042117 Hash: 87A261A5D6E2F628A8C0346E9D6C1C25 Accuracy: -m0
  Conclusion: MPEG 95%
  Signature: 73A0D82C7DE169E506BE974FFD77CCFAA11C5891

Спектрограмма&#58;

Содержание индексной карты (cue&#41;&#58;

REM GENRE Rock
REM DATE 2014
REM DISCID 780B3009
REM COMMENT "ExactAudioCopy v1.0b3"
CATALOG 0000000000000
PERFORMER "Dire Straitst"
TITLE "Brothers In Arms"
FILE "01. Dire Straits - So Far Away.wav" WAVE
  TRACK 01 AUDIO
    TITLE "So Far Away"
    PERFORMER "Dire Straits"
    ISRC GBF088500673
    INDEX 01 00:00:00
FILE "02. Dire Straits - Money For Nothing.wav" WAVE
  TRACK 02 AUDIO
    TITLE "Money For Nothing"
    PERFORMER "Dire Straits"
    ISRC GBF088500674
    INDEX 01 00:00:00
FILE "03. Dire Straits - Walk Of Life.wav" WAVE
  TRACK 03 AUDIO
    TITLE "Walk Of Life"
    PERFORMER "Dire Straits"
    ISRC GBF088500675
    INDEX 01 00:00:00
FILE "04. Dire Straits - Your Latest Trick.wav" WAVE
  TRACK 04 AUDIO
    TITLE "Your Latest Trick"
    PERFORMER "Dire Straits"
    ISRC GBF088500676
    INDEX 01 00:00:00
FILE "05. Dire Straits - Why Worry.wav" WAVE
  TRACK 05 AUDIO
    TITLE "Why Worry"
    PERFORMER "Dire Straits"
    ISRC GBF088500677
    INDEX 01 00:00:00
FILE "06. Dire Straits - Ride Across The River.wav" WAVE
  TRACK 06 AUDIO
    TITLE "Ride Across The River"
    PERFORMER "Dire Straits"
    ISRC GBF088500678
    INDEX 01 00:00:00
FILE "07. Dire Straits - The Man's Too Strong.wav" WAVE
  TRACK 07 AUDIO
    TITLE "The Man's Too Strong"
    PERFORMER "Dire Straits"
    ISRC GBF088500679
    INDEX 01 00:00:00
FILE "08. Dire Straits - One World.wav" WAVE
  TRACK 08 AUDIO
    TITLE "One World"
    PERFORMER "Dire Straits"
    ISRC GBF088500680
    INDEX 01 00:00:00
FILE "09. Dire Straits - Brothers In Arms.wav" WAVE
  TRACK 09 AUDIO
    TITLE "Brothers In Arms"
    PERFORMER "Dire Straits"
    ISRC GBF088500681
    INDEX 01 00:00:00

Список участников&#58;

Bass, Vocals – John Illsley
Drums – Omar Hakim, Terry Williams (3)
Engineer – Neil Dorfsman
Engineer [Assistant, Air Montserrat] – Steve Jackson (3)
Engineer [Assistant, Power Station] – Bruce Lampcov, David Greenberg*
Guitar, Vocals – Mark Knopfler
Keyboards – Alan Clark
Keyboards, Vocals – Guy Fletcher
Lacquer Cut By – RL*
Mastered By [Masterdisk] – Bob Ludwig
Mastered By [Sound Clinic] – John Dent
Painting – Thomas Steyer
Photography By – Deborah Feingold
Producer – Mark Knopfler, Neil Dorfsman
Sleeve – Sutton Cooper
Written-By – Mark Knopfler
Время раздачи: до устойчивого сидирования
[Профиль] [ЛС]
Кто просматривает тему:

Показать сообщения:    

Текущее время: Сегодня 11:58

Часовой пояс: GMT



Вы не можете начинать темы
Вы не можете отвечать на сообщения
Вы не можете редактировать свои сообщения
Вы не можете удалять свои сообщения
Вы не можете голосовать в опросах
Вы не можете прикреплять файлы к сообщениям
Вы не можете скачивать файлы