(Hard & Heavy)Dio - Rock Legends - 2007 [FLAC, image +.cue, lossless]

 
Автор Сообщение

sergej644 ®

Пол:

Стаж: 4 года 11 месяцев

Сообщений: 6046

Откуда: Soviet Union



Награды: Нет

Торрент-статистика

Создавать темы 29-Авг-2016 15:53

[Цитировать]

-Dio - Rock Legends--
Год издания: 2007
Страна: USA
Жанр: Hard & Heavy
Продолжительность: 00:58:59-Лейбл издания: Mercury Records
Страна-выпуска диска: EU
Номер по каталогу: 0602498463406-Формат: FLAC
Битрейт аудио: Lossless
Тип рипа: image +.cue
Наличие сканов в содержимом раздачи: да
-

Трэклист


01.Holy Diver(05:42)
02.Don't Talk To Strangers(04:53)
03.Rainbow In The Dark(04:14)
04.The Last In Line(05:48)
05.Evil Eyes(03:39)
06.Rock 'N' Roll Children(04:34)
07.Dream Evil(04:30)
08.All The Fools Sailes Away(07:16)
09.Shame On The Night(05:20)
10.Jesus, Mary And The Holy Ghost(04:10)
11.Hungry For Heaven(04:13)
12.We Rock(04:38)
-

Лог создания рипа

Exact Audio Copy V1.1 from 23. June 2015
EAC extraction logfile from 24. June 2016, 9:53
Dio / Rock Legends
Used drive  : HL-DT-STDVDRAM GH20NS10   Adapter: 1  ID: 0
Read mode               : Secure
Utilize accurate stream : Yes
Defeat audio cache      : Yes
Make use of C2 pointers : No
Read offset correction                      : 667
Overread into Lead-In and Lead-Out          : No
Fill up missing offset samples with silence : Yes
Delete leading and trailing silent blocks   : No
Null samples used in CRC calculations       : Yes
Used interface                              : Native Win32 interface for Win NT & 2000
Used output format              : User Defined Encoder
Selected bitrate                : 128 kBit/s
Quality                         : High
Add ID3 tag                     : No
Command line compressor         : C:\Program Files (x86)\Exact Audio Copy\FLAC\FLAC.EXE
Additional command line options : -V -8 -T "Date=%year%" -T "Genre=%genre%" %source%
TOC of the extracted CD
     Track |   Start  |  Length  | Start sector | End sector
    ---------------------------------------------------------
        1  |  0:00.00 |  5:42.36 |         0    |    25685
        2  |  5:42.36 |  4:53.15 |     25686    |    47675
        3  | 10:35.51 |  4:13.52 |     47676    |    66702
        4  | 14:49.28 |  5:48.30 |     66703    |    92832
        5  | 20:37.58 |  3:39.20 |     92833    |   109277
        6  | 24:17.03 |  4:33.67 |    109278    |   129819
        7  | 28:50.70 |  4:30.17 |    129820    |   150086
        8  | 33:21.12 |  7:15.63 |    150087    |   182774
        9  | 40:37.00 |  5:20.25 |    182775    |   206799
       10  | 45:57.25 |  4:09.69 |    206800    |   225543
       11  | 50:07.19 |  4:13.30 |    225544    |   244548
       12  | 54:20.49 |  4:38.05 |    244549    |   265403
Range status and errors
Selected range
     Filename H:\ЕАС\rwa12\Dio - Rock Legends.wav
     Peak level 100.0 %
     Extraction speed 7.8 X
     Range quality 100.0 %
     Test CRC CDE42077
     Copy CRC CDE42077
     Copy OK
No errors occurred
AccurateRip summary
Track  1  accurately ripped (confidence 3)  [1FFBBA5F]  (AR v2)
Track  2  accurately ripped (confidence 3)  [3A938EE2]  (AR v2)
Track  3  accurately ripped (confidence 3)  [9B1A278E]  (AR v2)
Track  4  accurately ripped (confidence 3)  [58BE127C]  (AR v2)
Track  5  accurately ripped (confidence 3)  [7422A913]  (AR v2)
Track  6  accurately ripped (confidence 3)  [C859C39B]  (AR v2)
Track  7  accurately ripped (confidence 3)  [89AD21E3]  (AR v2)
Track  8  accurately ripped (confidence 3)  [C8E197B7]  (AR v2)
Track  9  accurately ripped (confidence 3)  [D0843B14]  (AR v2)
Track 10  accurately ripped (confidence 3)  [1DA3FEF4]  (AR v2)
Track 11  accurately ripped (confidence 3)  [084DE845]  (AR v2)
Track 12  accurately ripped (confidence 3)  [E4118852]  (AR v2)
All tracks accurately ripped
End of status report
---- CUETools DB Plugin V2.1.6
[CTDB TOCID: drwuVTt434YWX.tkWtEAVhRFRbM-] found
Submit result: already submitted
Track | CTDB Status
  1   | (4/4) Accurately ripped
  2   | (4/4) Accurately ripped
  3   | (4/4) Accurately ripped
  4   | (4/4) Accurately ripped
  5   | (4/4) Accurately ripped
  6   | (4/4) Accurately ripped
  7   | (4/4) Accurately ripped
  8   | (4/4) Accurately ripped
  9   | (4/4) Accurately ripped
10   | (4/4) Accurately ripped
11   | (4/4) Accurately ripped
12   | (4/4) Accurately ripped

Индексная карта (non-compilant .cue)

REM GENRE "Heavy Metal"
REM DATE 2007
REM DISCID A50DD20C
REM COMMENT "ExactAudioCopy v1.1"
PERFORMER "Dio"
TITLE "Rock Legends"
FILE "Dio - Rock Legends.flac" WAVE
  TRACK 01 AUDIO
    TITLE "Holy Diver"
    PERFORMER "Dio"
    INDEX 01 00:00:00
  TRACK 02 AUDIO
    TITLE "Don't Talk To Strangers"
    PERFORMER "Dio"
    INDEX 00 05:41:53
    INDEX 01 05:42:36
  TRACK 03 AUDIO
    TITLE "Rainbow In The Dark"
    PERFORMER "Dio"
    INDEX 00 10:34:69
    INDEX 01 10:35:51
  TRACK 04 AUDIO
    TITLE "The Last In Line"
    PERFORMER "Dio"
    INDEX 00 14:48:45
    INDEX 01 14:49:28
  TRACK 05 AUDIO
    TITLE "Evil Eyes"
    PERFORMER "Dio"
    INDEX 00 20:37:00
    INDEX 01 20:37:58
  TRACK 06 AUDIO
    TITLE "Rock 'N' Roll Children"
    PERFORMER "Dio"
    INDEX 00 24:16:20
    INDEX 01 24:17:03
  TRACK 07 AUDIO
    TITLE "Dream Evil"
    PERFORMER "Dio"
    INDEX 00 28:50:12
    INDEX 01 28:50:70
  TRACK 08 AUDIO
    TITLE "All The Fools Sailes Away"
    PERFORMER "Dio"
    INDEX 00 33:20:29
    INDEX 01 33:21:12
  TRACK 09 AUDIO
    TITLE "Shame On The Night"
    PERFORMER "Dio"
    INDEX 00 40:36:17
    INDEX 01 40:37:00
  TRACK 10 AUDIO
    TITLE "Jesus, Mary And The Holy Ghost"
    PERFORMER "Dio"
    INDEX 00 45:56:42
    INDEX 01 45:57:25
  TRACK 11 AUDIO
    TITLE "Hungry For Heaven"
    PERFORMER "Dio"
    INDEX 00 50:06:36
    INDEX 01 50:07:19
  TRACK 12 AUDIO
    TITLE "We Rock"
    PERFORMER "Dio"
    INDEX 00 54:19:66
    INDEX 01 54:20:49
--
[Профиль] [ЛС]
Показать сообщения:    

Текущее время: Сегодня 07:14

Часовой пояс: GMT



Вы не можете начинать темы
Вы не можете отвечать на сообщения
Вы не можете редактировать свои сообщения
Вы не можете удалять свои сообщения
Вы не можете голосовать в опросах
Вы не можете прикреплять файлы к сообщениям
Вы не можете скачивать файлы