(Italo-Disco) Digital Emotion - Digital Emotion & Outside In The Dark (1984-1985) - 2002 [FLAC, image+.cue, lossless]

 
Автор Сообщение

sergej644 ®

Пол:

Стаж: 4 года 11 месяцев

Сообщений: 6045

Откуда: Soviet Union



Награды: Нет

Торрент-статистика

Создавать темы 06-Авг-2015 12:20

[Цитировать]

-Digital Emotion / Digital Emotion & Outside In The Dark (1984-1985)-- Год издания: 2002
Страна: Netherlands
Жанр: Italo-Disco
Продолжительность:01:16:51-Лейбл издания: Break Records
Страна-выпуска диска: EU
Номер по каталогу: 1861210-2
Формат: FLAC
Битрейт аудио: lossless
Тип рипа: image+.cue
Наличие сканов в содержимом раздачи: да
-

Трэклист

01.Get Up, Action (04:45)
02.Go Go Yellow Screen (06:02)
03.The Beauty & The Beast (05:06)
04.Don't Stop (04:38)
05.Electric Love (04:59)
06.Humanity (08:47)
07.Time (Back In Time) (06:40)
08.Outside In The Dark (03:28)
09.Down Get Down (09:06)
10.Steppin' Out (05:24)
11.Reach Out I'll Be There (06:40)
12.Je Veux L'amour (04:45)
13.Jungle Beat (06:37)

Лог создания рипа

Exact Audio Copy V0.99 prebeta 5 from 4. May 2009
Отчёт EAC об извлечении, выполненном 21. марта 2011, 11:20
Digital Emotion / Digital Emotion & Outside In The Dark
Дисковод: Optiarc DVD RW AD-7203A   Adapter: 1  ID: 0
Режим чтения                 : Достоверность
Использование точного потока : Да
Отключение кэша аудио        : Да
Использование указателей C2  : Нет
Коррекция смещения при чтении                     : 48
Способность читать области Lead-in и Lead-out     : Нет
Заполнение пропущенных сэмплов тишиной            : Да
Удаление блоков с тишиной в начале и конце        : Нет
При вычислениях CRC использовались нулевые сэмплы : Да
Интерфейс                                         : Встроенный Win32-интерфейс для Win NT/2000
Выходной формат          : Пользовательский кодировщик
Выбранный битрейт        : 1024 kBit/s
Качество                 : Высокий
Добавление ID3-тэга      : Да
Утилита сжатия           : C:\Program Files\Exact Audio Copy\FLAC\FLAC.EXE
Дополнительные параметры : -8 -V -T "ARTIST=%a" -T "TITLE=%t" -T "ALBUM=%g" -T "DATE=%y" -T "TRACKNUMBER=%n" -T "GENRE=%m" -T "COMMENT=EAC FLAC -8" %s
TOC извлечённого CD
     Трек |   Старт  | Длительность | Начальный сектор | Конечный сектор
    ---------------------------------------------------------------------
       1  |  0:00.00 |    4:44.25   |           0      |      21324
       2  |  4:44.25 |    6:01.20   |       21325      |      48419
       3  | 10:45.45 |    5:05.60   |       48420      |      71354
       4  | 15:51.30 |    4:37.40   |       71355      |      92169
       5  | 20:28.70 |    4:58.05   |       92170      |     114524
       6  | 25:27.00 |    8:46.40   |      114525      |     154014
       7  | 34:13.40 |    6:39.70   |      154015      |     184009
       8  | 40:53.35 |    3:27.15   |      184010      |     199549
       9  | 44:20.50 |    9:05.10   |      199550      |     240434
      10  | 53:25.60 |    5:23.55   |      240435      |     264714
      11  | 58:49.40 |    6:39.55   |      264715      |     294694
      12  | 65:29.20 |    4:44.10   |      294695      |     316004
      13  | 70:13.30 |    6:36.65   |      316005      |     345769
Характеристики диапазона извлечения и сообщения об ошибках
Выбранный диапазон
     Имя файла F:\СВОИ РЕЛИЗЫ\Digital Emotion 1984-1986 ''Digital Emotion, Outside In The Dark''\Digital Emotion - Digital Emotion & Outside In The Dark.wav
     Пиковый уровень 99.8 %
     Качество диапазона 100.0 %
     CRC теста 31C311BE
     CRC копии 31C311BE
     Копирование... OK
Ошибок не произошло
AccurateRip: сводка
Трек  1  нет в базе данных
Трек  2  нет в базе данных
Трек  3  нет в базе данных
Трек  4  нет в базе данных
Трек  5  нет в базе данных
Трек  6  нет в базе данных
Трек  7  нет в базе данных
Трек  8  нет в базе данных
Трек  9  нет в базе данных
Трек 10  нет в базе данных
Трек 11  нет в базе данных
Трек 12  нет в базе данных
Трек 13  нет в базе данных
Ни одного трека нет в базе AccurateRip
Конец отчёта

Индексная карта (non-compilant .cue)

REM GENRE Disco
REM DATE 1986
REM DISCID AB12020D
REM COMMENT "ExactAudioCopy v0.99pb5"
PERFORMER "Digital Emotion"
TITLE "Digital Emotion & Outside In The Dark"
FILE "Digital Emotion - Digital Emotion & Outside In The Dark.flac" WAVE
  TRACK 01 AUDIO
    TITLE "Get Up, Action"
    PERFORMER "Digital Emotion"
    FLAGS DCP
    INDEX 01 00:00:00
  TRACK 02 AUDIO
    TITLE "Go Go Yellow Screen"
    PERFORMER "Digital Emotion"
    FLAGS DCP
    INDEX 01 04:44:25
  TRACK 03 AUDIO
    TITLE "The Beauty & The Beast"
    PERFORMER "Digital Emotion"
    FLAGS DCP
    INDEX 01 10:45:45
  TRACK 04 AUDIO
    TITLE "Don't Stop"
    PERFORMER "Digital Emotion"
    FLAGS DCP
    INDEX 01 15:51:30
  TRACK 05 AUDIO
    TITLE "Electric Love"
    PERFORMER "Digital Emotion"
    FLAGS DCP
    INDEX 01 20:28:70
  TRACK 06 AUDIO
    TITLE "Humanity"
    PERFORMER "Digital Emotion"
    FLAGS DCP
    INDEX 01 25:27:00
  TRACK 07 AUDIO
    TITLE "Time (Back In Time)"
    PERFORMER "Digital Emotion"
    FLAGS DCP
    INDEX 01 34:13:40
  TRACK 08 AUDIO
    TITLE "Outside In The Dark"
    PERFORMER "Digital Emotion"
    FLAGS DCP
    INDEX 01 40:53:35
  TRACK 09 AUDIO
    TITLE "Down Get Down"
    PERFORMER "Digital Emotion"
    FLAGS DCP
    INDEX 01 44:20:50
  TRACK 10 AUDIO
    TITLE "Steppin' Out"
    PERFORMER "Digital Emotion"
    FLAGS DCP
    INDEX 01 53:25:60
  TRACK 11 AUDIO
    TITLE "Reach Out I'll Be There"
    PERFORMER "Digital Emotion"
    FLAGS DCP
    INDEX 01 58:49:40
  TRACK 12 AUDIO
    TITLE "Je Veux L'amour"
    PERFORMER "Digital Emotion"
    FLAGS DCP
    INDEX 01 65:29:20
  TRACK 13 AUDIO
    TITLE "Jungle Beat"
    PERFORMER "Digital Emotion"
    FLAGS DCP
    INDEX 01 70:13:30

Скриншот спектра частот

--Не забываем говорить
[Профиль] [ЛС]

Создавать темы 13-Авг-2015 10:41 (спустя 6 дней)

Топик был перенесен из форума Зарубежная в форум Technopop, Eurodance, Disco
sergej644
 
Показать сообщения:    

Текущее время: Сегодня 09:56

Часовой пояс: GMT



Вы не можете начинать темы
Вы не можете отвечать на сообщения
Вы не можете редактировать свои сообщения
Вы не можете удалять свои сообщения
Вы не можете голосовать в опросах
Вы не можете прикреплять файлы к сообщениям
Вы не можете скачивать файлы