(hard rock) Diamond Dogs - That's the Juice I'm On - 2003, FLAC (tracks+.cue), lossless

 
Автор Сообщение

sergej644 ®

Пол:

Стаж: 4 года 11 месяцев

Сообщений: 6046

Откуда: Soviet Union



Награды: Нет

Торрент-статистика

Создавать темы 18-Мар-2015 15:27

[Цитировать]

Diamond Dogs / That's the Juice I'm On
Жанр: hard rock
Страна-производитель диска (релиза): Sweden
Год издания: 2003
Издатель (лейбл): Feedback Boogie Records
Номер по каталогу: FBRCD 022
Страна исполнителя (группы): Sweden
Аудиокодек: FLAC (*.flac)
Тип рипа: tracks+.cue
Битрейт аудио: lossless
Продолжительность: 00:45:41
Треклист:
01. From Now On (3:31)
02. Just Ain't Right (3:04)
03. Weekend Monster (2000) (3:36)
04. I'll Drink To Ya (3:22)
05. Passing Through My Heart (4:14)
06. Get The Monkey Off (3:02)
07. Throw It All Away (2:49)
08. Travelin' Rose (3:17)
09. Lunatic Eye-Rolling Delivery (4:18)
10. Hurt You Twice As Much (3:23)
11.Position Right Here (3:00)
12. Pills (2:24)
13. You Captured My Smile (4:58)
14. Slim Busty Blonde (1:50)
-

Лог создания рипа

Exact Audio Copy V0.99 prebeta 5 from 4. May 2009
EAC extraction logfile from 14. July 2009, 11:13
Diamond Dogs / That's the Juice I'm On
Used drive  : TSSTcorpCD/DVDW SH-S183A   Adapter: 2  ID: 0
Read mode               : Secure
Utilize accurate stream : Yes
Defeat audio cache      : Yes
Make use of C2 pointers : No
Read offset correction                      : 6
Overread into Lead-In and Lead-Out          : No
Fill up missing offset samples with silence : Yes
Delete leading and trailing silent blocks   : No
Null samples used in CRC calculations       : Yes
Used interface                              : Installed external ASPI interface
Gap handling                                : Appended to previous track
Used output format              : User Defined Encoder
Selected bitrate                : 128 kBit/s
Quality                         : High
Add ID3 tag                     : No
Command line compressor         : C:\Program Files\Exact Audio Copy\Flac\flac.exe
Additional command line options : -V -8 -T "artist=%a" -T "title=%t" -T "album=%g" -T "date=%y" -T "tracknumber=%n" -T "genre=%m" %s
TOC of the extracted CD
     Track |   Start  |  Length  | Start sector | End sector
    ---------------------------------------------------------
        1  |  0:00.00 |  3:31.60 |         0    |    15884
        2  |  3:31.60 |  3:03.70 |     15885    |    29679
        3  |  6:35.55 |  3:35.68 |     29680    |    45872
        4  | 10:11.48 |  3:22.55 |     45873    |    61077
        5  | 13:34.28 |  4:14.08 |     61078    |    80135
        6  | 17:48.36 |  3:01.69 |     80136    |    93779
        7  | 20:50.30 |  2:49.09 |     93780    |   106463
        8  | 23:39.39 |  3:17.36 |    106464    |   121274
        9  | 26:57.00 |  4:18.45 |    121275    |   140669
       10  | 31:15.45 |  3:23.10 |    140670    |   155904
       11  | 34:38.55 |  3:00.30 |    155905    |   169434
       12  | 37:39.10 |  2:23.73 |    169435    |   180232
       13  | 40:03.08 |  4:58.06 |    180233    |   202588
       14  | 45:01.14 |  1:50.51 |    202589    |   210889
Track  1
     Filename C:\EAC Rips\Diamond Dogs - That's the Juice I'm On (2003)\01 - From Now On.wav
     Pre-gap length  0:00:02.00
     Peak level 98.8 %
     Track quality 100.0 %
     Test CRC 6F05A0A4
     Copy CRC 6F05A0A4
     Track not present in AccurateRip database
     Copy OK
Track  2
     Filename C:\EAC Rips\Diamond Dogs - That's the Juice I'm On (2003)\02 - Just Ain't Right (alternate mix).wav
     Pre-gap length  0:00:00.33
     Peak level 98.8 %
     Track quality 99.9 %
     Test CRC 0313F0AE
     Copy CRC 0313F0AE
     Track not present in AccurateRip database
     Copy OK
Track  3
     Filename C:\EAC Rips\Diamond Dogs - That's the Juice I'm On (2003)\03 - Weekend Monster.wav
     Pre-gap length  0:00:00.68
     Peak level 90.7 %
     Track quality 100.0 %
     Test CRC 726488B6
     Copy CRC 726488B6
     Track not present in AccurateRip database
     Copy OK
Track  4
     Filename C:\EAC Rips\Diamond Dogs - That's the Juice I'm On (2003)\04 - I'll Drink to Ya.wav
     Peak level 98.8 %
     Track quality 100.0 %
     Test CRC 077C6F3D
     Copy CRC 077C6F3D
     Track not present in AccurateRip database
     Copy OK
Track  5
     Filename C:\EAC Rips\Diamond Dogs - That's the Juice I'm On (2003)\05 - Passing Through My Heart.wav
     Pre-gap length  0:00:01.90
     Peak level 93.4 %
     Track quality 100.0 %
     Test CRC 71DFCA3C
     Copy CRC 71DFCA3C
     Track not present in AccurateRip database
     Copy OK
Track  6
     Filename C:\EAC Rips\Diamond Dogs - That's the Juice I'm On (2003)\06 - Get the Monkey Off.wav
     Pre-gap length  0:00:01.18
     Peak level 98.8 %
     Track quality 100.0 %
     Test CRC 46346D47
     Copy CRC 46346D47
     Track not present in AccurateRip database
     Copy OK
Track  7
     Filename C:\EAC Rips\Diamond Dogs - That's the Juice I'm On (2003)\07 - Throw it All Away.wav
     Pre-gap length  0:00:02.82
     Peak level 89.1 %
     Track quality 100.0 %
     Test CRC 384D1B06
     Copy CRC 384D1B06
     Track not present in AccurateRip database
     Copy OK
Track  8
     Filename C:\EAC Rips\Diamond Dogs - That's the Juice I'm On (2003)\08 - Travelin' Rose.wav
     Pre-gap length  0:00:01.45
     Peak level 98.8 %
     Track quality 100.0 %
     Test CRC F3D90B49
     Copy CRC F3D90B49
     Track not present in AccurateRip database
     Copy OK
Track  9
     Filename C:\EAC Rips\Diamond Dogs - That's the Juice I'm On (2003)\09 - Lunatic Eye , Rolling Delivery.wav
     Pre-gap length  0:00:00.64
     Peak level 95.5 %
     Track quality 100.0 %
     Test CRC 3CA83260
     Copy CRC 3CA83260
     Track not present in AccurateRip database
     Copy OK
Track 10
     Filename C:\EAC Rips\Diamond Dogs - That's the Juice I'm On (2003)\10 - Hurt You Twice as Much.wav
     Pre-gap length  0:00:00.90
     Peak level 96.4 %
     Track quality 100.0 %
     Test CRC 507C06CF
     Copy CRC 507C06CF
     Track not present in AccurateRip database
     Copy OK
Track 11
     Filename C:\EAC Rips\Diamond Dogs - That's the Juice I'm On (2003)\11 - Position Right Here.wav
     Pre-gap length  0:00:02.00
     Peak level 98.8 %
     Track quality 100.0 %
     Test CRC BBF2B4C0
     Copy CRC BBF2B4C0
     Track not present in AccurateRip database
     Copy OK
Track 12
     Filename C:\EAC Rips\Diamond Dogs - That's the Juice I'm On (2003)\12 - Pills.wav
     Peak level 98.8 %
     Track quality 100.0 %
     Test CRC 5518B624
     Copy CRC 5518B624
     Track not present in AccurateRip database
     Copy OK
Track 13
     Filename C:\EAC Rips\Diamond Dogs - That's the Juice I'm On (2003)\13 - You Captured My Smile.wav
     Peak level 79.8 %
     Track quality 100.0 %
     Test CRC 085DBBC1
     Copy CRC 085DBBC1
     Track not present in AccurateRip database
     Copy OK
Track 14
     Filename C:\EAC Rips\Diamond Dogs - That's the Juice I'm On (2003)\14 - Slim Busty Blonde.wav
     Peak level 95.5 %
     Track quality 100.0 %
     Test CRC B05D0AAD
     Copy CRC B05D0AAD
     Track not present in AccurateRip database
     Copy OK
None of the tracks are present in the AccurateRip database
No errors occurred
End of status report

Содержание индексной карты (.CUE)

REM GENRE Rock
REM DATE 2003
REM DISCID A20AFB0E
REM COMMENT "ExactAudioCopy v0.99pb5"
FILE "01 - From Now On.wav" WAVE
  TRACK 01 AUDIO
    INDEX 01 00:00:00
  TRACK 02 AUDIO
    INDEX 00 03:31:35
FILE "02 - Just Ain't Right (alternate mix).wav" WAVE
    INDEX 01 00:00:00
  TRACK 03 AUDIO
    INDEX 00 03:03:19
FILE "03 - Weekend Monster.wav" WAVE
    INDEX 01 00:00:00
FILE "04 - I'll Drink to Ya.wav" WAVE
  TRACK 04 AUDIO
    INDEX 01 00:00:00
  TRACK 05 AUDIO
    INDEX 00 03:20:62
FILE "05 - Passing Through My Heart.wav" WAVE
    INDEX 01 00:00:00
  TRACK 06 AUDIO
    INDEX 00 04:12:69
FILE "06 - Get the Monkey Off.wav" WAVE
    INDEX 01 00:00:00
  TRACK 07 AUDIO
    INDEX 00 02:59:07
FILE "07 - Throw it All Away.wav" WAVE
    INDEX 01 00:00:00
  TRACK 08 AUDIO
    INDEX 00 02:47:50
FILE "08 - Travelin' Rose.wav" WAVE
    INDEX 01 00:00:00
  TRACK 09 AUDIO
    INDEX 00 03:16:63
FILE "09 - Lunatic Eye , Rolling Delivery.wav" WAVE
    INDEX 01 00:00:00
  TRACK 10 AUDIO
    INDEX 00 04:17:52
FILE "10 - Hurt You Twice as Much.wav" WAVE
    INDEX 01 00:00:00
  TRACK 11 AUDIO
    INDEX 00 03:21:10
FILE "11 - Position Right Here.wav" WAVE
    INDEX 01 00:00:00
FILE "12 - Pills.wav" WAVE
  TRACK 12 AUDIO
    INDEX 01 00:00:00
FILE "13 - You Captured My Smile.wav" WAVE
  TRACK 13 AUDIO
    INDEX 01 00:00:00
FILE "14 - Slim Busty Blonde.wav" WAVE
  TRACK 14 AUDIO
    INDEX 01 00:00:00

Лог проверки качества

AUDIOCHECKER v2.0 beta (build 457) - by Dester - opdester@freemail.hu
~~~~~~~~~~~~~~~~~~~~~~~~~~~~~~~~~~
-=== DO NOT EDIT THIS FILE! ===-
Path: ...\Diamond Dogs - That's the Juice I'm On (2003) what.cd
01 -=- 01 - From Now On.flac -=- CDDA (100%)
02 -=- 02 - Just Ain't Right (alternate mix).flac -=- CDDA (100%)
03 -=- 03 - Weekend Monster.flac -=- CDDA (100%)
04 -=- 04 - I'll Drink to Ya.flac -=- CDDA (100%)
05 -=- 05 - Passing Through My Heart.flac -=- CDDA (99%)
06 -=- 06 - Get the Monkey Off.flac -=- CDDA (100%)
07 -=- 07 - Throw it All Away.flac -=- CDDA (100%)
08 -=- 08 - Travelin' Rose.flac -=- CDDA (100%)
09 -=- 09 - Lunatic Eye , Rolling Delivery.flac -=- CDDA (100%)
10 -=- 10 - Hurt You Twice as Much.flac -=- CDDA (100%)
11 -=- 11 - Position Right Here.flac -=- CDDA (100%)
12 -=- 12 - Pills.flac -=- CDDA (100%)
13 -=- 13 - You Captured My Smile.flac -=- CDDA (100%)
14 -=- 14 - Slim Busty Blonde.flac -=- CDDA (100%)
Summary 99,93% CDDA
80632884
--
[Профиль] [ЛС]
Показать сообщения:    

Текущее время: Сегодня 06:23

Часовой пояс: GMT



Вы не можете начинать темы
Вы не можете отвечать на сообщения
Вы не можете редактировать свои сообщения
Вы не можете удалять свои сообщения
Вы не можете голосовать в опросах
Вы не можете прикреплять файлы к сообщениям
Вы не можете скачивать файлы