Depeche Mode - Alive In Berlin (2014) WEB-DL 1080p

 
Автор Сообщение

sergej644 ®

Пол:

Стаж: 4 года 11 месяцев

Сообщений: 6035

Откуда: Soviet Union



Награды: Нет

Торрент-статистика

Создавать темы 16-Янв-2015 00:22

[Цитировать]

-Depeche Mode - Alive In Berlin (2014) WEB-DL 1080p- Год выпуска: 2014
Жанр: Документальный, Музыка, Концерт
Источник: iTunes HD
Дата мировой премьеры: 23.11.14
Описание фильма:
Выступление группы записано на берлинском стадионе «O2 World» 25-го и 27-го ноября 2013 года, в рамках чрезвычайно успешного "Delta Machine Tour", который посетили более 2,4 миллиона человек в 32 странах. DM гастролировали в поддержку своего 13-го альбома, стартовавшего в марте 2013 г. как №1 в 12 странах. Запись включает в себя не только новый материал, но и самые известные хиты группы, и представляет собой концерт с нарезкой из небольших интервью группы и их фанов, а также акустические версии «Condemnation» и «Judas», записанные в старейшем борделе Берлина — салоне «Bel Ami». Режиссером видео вновь стал известный фотограф и фильмейкер Антон Корбейн.
Режиссер: Anton Corbijn
Актеры: David Gahan, Martin Gore, Andrew Fletcher и приглашенные музыканты.
Продолжительность: 02:34:15
Качество видео: WEB-DL
Перевод: Отсутствует
Язык субтитров: English, Francais, Deutsch, Italiano, Espanol
Вид субтитров: Отключаемые

Видеокодек: MPEG-4 AVC/H.264
Битрейт видео: ~4758 kb/s
Размер кадра: 1912x1072
Аудиокодек: AAC 2.0 (160 kb/s), AC3 5.1 (384 kb/s)
Треклист:
01. Intro
02. Welcome To My World
03. Angel
04. Walking In My Shoes
05. Precious
06. Black Celebration

Продолжение треклиста

07. Should Be Higher
08. Policy Of Truth
09. The Child Inside
10. But Not Tonight
11. Heaven
12. Soothe My Soul
13. A Pain That I’m Used To
14. A Question Of Time
15. Enjoy The Silence
16. Personal Jesus
17. Shake The Disease
18. Halo
19. Just Can’t Get Enough
20. I Feel You
21. Never Let Me Down Again
22. Goodbye
Plus
Bordello Acoustic Session: "Condemnation" and "Judas"
15 Interview Pieces
Техданные:

MI

Общее
Полное имя                               : D:\Music_video\Depeche Mode - Alive in Berlin.m4v
Формат                                   : MPEG-4
Идентификатор кодека                     : M4V
Размер файла                             : 5,72 Гбайт
Продолжительность                        : 2 ч. 34 м.
Режим общего битрейта                    : Переменный
Общий поток                              : 5309 Кбит/сек
Название фильма                          : Depeche Mode: Alive In Berlin
Исполнитель                              : Depeche Mode
Исполнитель/Сортировать по               : Depeche Mode
Жанр                                     : Conciertos en video
Тип содержимого                          : Short Film
Описание                                 : 'Depeche Mode Live in Berlin' was filmed on location at the O2 World Berlin on November 25th and
Дата записи                              : UTC 2014-11-17 08:00:00
Дата кодирования                         : UTC 2014-11-21 04:50:12
Дата пометки                             : UTC 2014-11-21 04:51:32
Правообладатель                          : © 2014 Venusnote Ltd., under exclusive license to Columbia Records, a Division of Sony Music Entertainment
Обложка                                  : Yes
Рейтинг                                  : None
AppleStoreAccount                        : [url=mailto:msvillaescusa@hotmail.com]msvillaescusa@hotmail.com[/url]
ownr                                     : Mariano Villaescusa
AppleStoreCatalogID                      : 939096560
AlbumTitleID                             : 148377
GenreID                                  : 4422
AppleStoreCountry                        : Unknown Country
PurchaseDate                             : 2014-11-23 00:32:00
Title/Sort                               : Depeche Mode: Alive In Berlin
Vendor                                   : SonyBMG:upc:886444899390
Flavour                                  : 18:1080p
ContentRating                            : ar-movie|Sin Calificacin|900|
LongDescription                          : 'Depeche Mode Live in Berlin' was filmed on location at the O2 World Berlin on November 25th and 27th, 2013 during the band's extremely successful 'Delta Machine' Tour which saw them play to over 2.4 million people in 32 countries. Depeche Mode was touring in support of their lauded 13th studio album, ‘Delta Machine,’ which debuted at #1 in 12 countries worldwide in March 2013. The concert not only includes performances of tracks from ‘Delta Machine’ but also some of their most memorable and biggest hits including "Personal Jesus" and "Enjoy the Silence." 'Alive in Berlin' includes the full live show, inter-spliced with behind-the-scenes footage, multiple interviews with the band and their fans, and a 2-song acoustic session, which was filmed at Salon Bel Ami, the oldest existing brothel in Berlin.
iTunMOVI                                 :  /  /  /  /   asset-info /   /     closed-captioned /     /     file-size /     5537401203 /     flavor /     7:720p /     high-definition /     /     screen-format /     widescreen /     soundtrack /     DD,DS /   /   cast /   /     /       adamId /       148377 /       name /       Depeche Mode /     /   /   codirectors /   /   copy-warning /   FBI ANTI-PIRACY WARNING: UNAUTHORIZED COPYING IS PUNISHABLE UNDER FEDERAL LAW. /   directors /   /   producers /   /   screenwriters /   /   studio /   Trigger Happy Productions/Berlin /  /
Видео #1
Идентификатор                            : 1
Формат                                   : AVC
Формат/Информация                        : Advanced Video Codec
Профиль формата                          : [url=mailto:High@L4.0]High@L4.0[/url]
Параметр CABAC формата                   : Да
Параметр ReFrames формата                : 4 кадра
Идентификатор кодека                     : avc1
Идентификатор кодека/Информация          : Advanced Video Coding
Продолжительность                        : 2 ч. 34 м.
Битрейт                                  : 4758 Кбит/сек
Ширина                                   : 1912 пикселей
Высота                                   : 1072 пикселя
Соотношение сторон                       : 16:9
Режим частоты кадров                     : Постоянный
Частота кадров                           : 25,000 кадров/сек
Цветовое пространство                    : YUV
Субдискретизация насыщенности            : 4:2:0
Битовая глубина                          : 8 бит
Тип развёртки                            : Прогрессивная
Бит/(Пиксели*Кадры)                      : 0.093
Размер потока                            : 5,13 Гбайт (90%)
Язык                                     : English
Дата кодирования                         : UTC 2014-11-21 04:50:04
Дата пометки                             : UTC 2014-11-21 04:51:32
Основные цвета                           : BT.709
Характеристики трансфера                 : BT.709
Коэффициенты матрицы                     : BT.709
Видео #2
Идентификатор                            : 11
Формат                                   : JPEG
Идентификатор кодека                     : jpeg
Продолжительность                        : 2 ч. 34 м.
Вид битрейта                             : Переменный
Битрейт                                  : 1477 бит/сек
Ширина                                   : 640 пикселей
Высота                                   : 360 пикселей
Соотношение сторон                       : 1,85:1
Режим частоты кадров                     : Переменный
Частота кадров                           : 0,003 кадр/сек
Минимальная частота кадров               : 0,002 кадр/сек
Максимальная частота кадров              : 0,010 кадр/сек
Цветовое пространство                    : YUV
Субдискретизация насыщенности            : 4:4:4
Битовая глубина                          : 8 бит
Метод сжатия                             : С потерями
Бит/(Пиксели*Кадры)                      : 2.137
Размер потока                            : 1,47 Мбайт (0%)
Язык                                     : English
Дата кодирования                         : UTC 2014-11-21 04:50:04
Дата пометки                             : UTC 2014-11-21 04:51:32
Аудио #1
Идентификатор                            : 2
Формат                                   : AAC
Формат/Информация                        : Advanced Audio Codec
Профиль формата                          : LC
Идентификатор кодека                     : 40
Продолжительность                        : 2 ч. 34 м.
Продолжительность оригинала              : 2 ч. 34 м.
Вид битрейта                             : Постоянный
Битрейт                                  : 160 Кбит/сек
Каналы                                   : 2 канала
Расположение каналов                     : Front: L R
Частота                                  : 48,0 КГц
Метод сжатия                             : С потерями
Размер потока                            : 175 Мбайт (3%)
Размер потока оригинала                  : 175 Мбайт (3%)
Язык                                     : English
Дата кодирования                         : UTC 2014-11-21 04:50:04
Дата пометки                             : UTC 2014-11-21 04:51:32
Аудио #2
Идентификатор                            : 3
Формат                                   : AC-3
Формат/Информация                        : Audio Coding 3
Расширение режима                        : CM (complete main)
Параметр Endianness формата              : Big
Идентификатор кодека                     : ac-3
Продолжительность                        : 2 ч. 34 м.
Вид битрейта                             : Постоянный
Битрейт                                  : 384 Кбит/сек
Каналы                                   : 6 каналов
Расположение каналов                     : Front: L C R, Side: L R, LFE
Частота                                  : 48,0 КГц
Битовая глубина                          : 16 бит
Метод сжатия                             : С потерями
Размер потока                            : 424 Мбайт (7%)
Язык                                     : English
Дата кодирования                         : UTC 2014-11-21 04:50:04
Дата пометки                             : UTC 2014-11-21 04:51:32
Текст #1
Идентификатор                            : 4
Формат                                   : Timed Text
Режим смешивания                         : sbtl
Идентификатор кодека                     : tx3g
Продолжительность                        : 2 ч. 24 м.
Вид битрейта                             : Переменный
Битрейт                                  : 29 бит/сек
Размер потока                            : 30,9 Кбайт (0%)
Язык                                     : English
Дата кодирования                         : UTC 2014-11-21 04:50:04
Дата пометки                             : UTC 2014-11-21 04:51:32
Текст #2
Идентификатор                            : 5
Формат                                   : Timed Text
Режим смешивания                         : sbtl
Идентификатор кодека                     : tx3g
Продолжительность                        : 2 ч. 25 м.
Вид битрейта                             : Переменный
Битрейт                                  : 27 бит/сек
Размер потока                            : 29,1 Кбайт (0%)
Язык                                     : Spanish
Дата кодирования                         : UTC 2014-11-21 04:50:04
Дата пометки                             : UTC 2014-11-21 04:51:32
Текст #3
Идентификатор                            : 6
Формат                                   : Timed Text
Режим смешивания                         : sbtl
Идентификатор кодека                     : tx3g
Продолжительность                        : 2 ч. 25 м.
Вид битрейта                             : Переменный
Битрейт                                  : 27 бит/сек
Размер потока                            : 29,1 Кбайт (0%)
Язык                                     : French
Дата кодирования                         : UTC 2014-11-21 04:50:04
Дата пометки                             : UTC 2014-11-21 04:51:32
Текст #4
Идентификатор                            : 7
Формат                                   : Timed Text
Режим смешивания                         : sbtl
Идентификатор кодека                     : tx3g
Продолжительность                        : 2 ч. 25 м.
Вид битрейта                             : Переменный
Битрейт                                  : 26 бит/сек
Размер потока                            : 27,5 Кбайт (0%)
Язык                                     : Italian
Дата кодирования                         : UTC 2014-11-21 04:50:04
Дата пометки                             : UTC 2014-11-21 04:51:32
Текст #5
Идентификатор                            : 8
Формат                                   : Timed Text
Режим смешивания                         : sbtl
Идентификатор кодека                     : tx3g
Продолжительность                        : 2 ч. 25 м.
Вид битрейта                             : Переменный
Битрейт                                  : 28 бит/сек
Размер потока                            : 29,9 Кбайт (0%)
Язык                                     : German
Дата кодирования                         : UTC 2014-11-21 04:50:04
Дата пометки                             : UTC 2014-11-21 04:51:32
Текст #6
Идентификатор                            : 9-CC1
Формат                                   : EIA-608
Режим смешивания                         : Final Cut
Идентификатор кодека                     : c608
Продолжительность                        : 2 ч. 34 м.
Продолжительность оригинала              : 2 ч. 34 м.
Вид битрейта                             : Постоянный
Размер потока                            : 0,00 байт (0%)
Размер потока оригинала                  : 93,5 Кбайт (0%)
Язык                                     : English
Дата кодирования                         : UTC 2014-11-21 04:50:04
Дата пометки                             : UTC 2014-11-21 04:51:32
Меню
Идентификатор                            : 10
Идентификатор кодека                     : tx3g
Продолжительность                        : 2 ч. 34 м.
Язык                                     : English
Дата кодирования                         : UTC 2014-11-21 04:50:04
Дата пометки                             : UTC 2014-11-21 04:51:32
Вид битрейта                             : VBR
Скриншоты:
Время раздачи: До первых скачавших--
[Профиль] [ЛС]

DAVE 62

Стаж: 1 год 7 месяцев

Сообщений: 1



Награды: Нет

Торрент-статистика

Создавать темы 30-Апр-2015 21:33 (спустя 3 месяца 14 дней)

[Цитировать]

merci
[Профиль] [ЛС]
Показать сообщения:    

Текущее время: Сегодня 00:37

Часовой пояс: GMT



Вы не можете начинать темы
Вы не можете отвечать на сообщения
Вы не можете редактировать свои сообщения
Вы не можете удалять свои сообщения
Вы не можете голосовать в опросах
Вы не можете прикреплять файлы к сообщениям
Вы не можете скачивать файлы