(Pop) Demis Roussos - Forever & Ever (the Best Of) - 2013 [APE, image +.cue, lossless]

 
Автор Сообщение

sergej644 ®

Пол:

Стаж: 4 года 11 месяцев

Сообщений: 6035

Откуда: Soviet Union



Награды: Нет

Торрент-статистика

Создавать темы 14-Фев-2016 14:27

[Цитировать]

-Demis Roussos - Forever & Ever (the Best Of)--
Год издания: 2013
Страна: Greece
Жанр: Pop
Продолжительность: 01:13:30-Лейбл издания: Universal UMC
Страна-выпуска диска: EU
Номер по каталогу: SPEC2131-Формат: APE
Битрейт аудио: Lossless
Тип рипа: image +.cue
Наличие сканов в содержимом раздачи: да
-

Трэклист


01. Happy To Be On An Island In The Sun © 1975 (03:07)
02. Goodbye My Love Goodbye © 1973 (03:58)
03. Can't Say How Much I Love You © 1976 (02:31)
04. When Forever Has Gone © 1974 (03:03)
05. Forever And Ever © 1973 (03:38)
06. Sing An Ode To Love © 1975 (04:10)
07. So Dreamy © 1976 (03:05)
08. My Friend The Wind © 1973 (03:51)
09. I Dig You © 1977 (04:03)
10. Velvet Morning © 1973 (03:40)
11. My Only Fascination © 1974 (03:45)
12. From Souvenirs To Souvenirs © 1975 (02:36)
13. Mourir Aupres De Mon Amour © 1977 (04:18)
14. We Shall Dance © 1971 (03:30)
15. Lovely Lady Of Arcadia © 1974 (03:24)
16. My Reason © 1972 (03:47)
17. Rebecca © 1973 (03:27)
18. Because © 1977 (04:14)
19. Rain And Tears © 1971 (03:14)
20. She Came Up From The North © 1971 (03:28)
21. I Know I'll Do It Again © 1971 (02:51)
-

Лог создания рипа

Exact Audio Copy V0.99 prebeta 5 from 4. May 2009
EAC extraction logfile from 20. February 2015, 13:13
Demis Roussos / Forever & Ever (the Best Of)
Used drive  : hp      CDDVDW SH-216BB   Adapter: 0  ID: 0
Read mode               : Secure
Utilize accurate stream : Yes
Defeat audio cache      : Yes
Make use of C2 pointers : No
Read offset correction                      : 6
Overread into Lead-In and Lead-Out          : No
Fill up missing offset samples with silence : Yes
Delete leading and trailing silent blocks   : No
Null samples used in CRC calculations       : Yes
Used interface                              : Native Win32 interface for Win NT & 2000
Used output format              : Monkey's Audio Lossless Encoder
Selected bitrate                : High Lossless Compression
Quality                         : High
Add ID3 tag                     : No
Command line compressor         : C:\Program Files (x86)\Monkey's Audio\MAC.exe
Additional command line options : -v
TOC of the extracted CD
     Track |   Start  |  Length  | Start sector | End sector
    ---------------------------------------------------------
        1  |  0:00.00 |  3:06.31 |         0    |    13980
        2  |  3:06.31 |  3:57.11 |     13981    |    31766
        3  |  7:03.42 |  2:30.26 |     31767    |    43042
        4  |  9:33.68 |  3:02.25 |     43043    |    56717
        5  | 12:36.18 |  3:37.23 |     56718    |    73015
        6  | 16:13.41 |  4:09.02 |     73016    |    91692
        7  | 20:22.43 |  3:04.70 |     91693    |   105562
        8  | 23:27.38 |  3:50.44 |    105563    |   122856
        9  | 27:18.07 |  4:02.71 |    122857    |   141077
       10  | 31:21.03 |  3:39.58 |    141078    |   157560
       11  | 35:00.61 |  3:44.40 |    157561    |   174400
       12  | 38:45.26 |  2:35.30 |    174401    |   186055
       13  | 41:20.56 |  4:17.37 |    186056    |   205367
       14  | 45:38.18 |  3:29.45 |    205368    |   221087
       15  | 49:07.63 |  3:23.26 |    221088    |   236338
       16  | 52:31.14 |  3:46.72 |    236339    |   253360
       17  | 56:18.11 |  3:26.72 |    253361    |   268882
       18  | 59:45.08 |  4:13.37 |    268883    |   287894
       19  | 63:58.45 |  3:13.13 |    287895    |   302382
       20  | 67:11.58 |  3:27.10 |    302383    |   317917
       21  | 70:38.68 |  2:50.53 |    317918    |   330720
Range status and errors
Selected range
     Filename C:\Users\Arthur\Desktop\Demis Roussos - Forever & Ever (the Best Of).wav
     Peak level 100.0 %
     Range quality 100.0 %
     Test CRC 1CA287DA
     Copy CRC 1CA287DA
     Copy OK
No errors occurred
AccurateRip summary
Track  1  cannot be verified as accurate (confidence 1)  [5B81F219], AccurateRip returned [258D5D83]
Track  2  cannot be verified as accurate (confidence 1)  [7D100C0C], AccurateRip returned [12D80490]
Track  3  cannot be verified as accurate (confidence 1)  [80E2DF03], AccurateRip returned [B7D4DC37]
Track  4  cannot be verified as accurate (confidence 1)  [072BA6D2], AccurateRip returned [F14CC9B7]
Track  5  cannot be verified as accurate (confidence 1)  [11BB376A], AccurateRip returned [54D6C948]
Track  6  cannot be verified as accurate (confidence 1)  [442A985E], AccurateRip returned [8BE5D5B2]
Track  7  cannot be verified as accurate (confidence 1)  [B061D0D4], AccurateRip returned [99E6494B]
Track  8  cannot be verified as accurate (confidence 1)  [DFA1FB31], AccurateRip returned [26C97320]
Track  9  cannot be verified as accurate (confidence 1)  [6B9E47F1], AccurateRip returned [58BA0014]
Track 10  cannot be verified as accurate (confidence 1)  [0197258D], AccurateRip returned [5ED15580]
Track 11  cannot be verified as accurate (confidence 1)  [190B054C], AccurateRip returned [55759435]
Track 12  cannot be verified as accurate (confidence 1)  [0D004F15], AccurateRip returned [B240F549]
Track 13  cannot be verified as accurate (confidence 1)  [1195E000], AccurateRip returned [33551E37]
Track 14  cannot be verified as accurate (confidence 1)  [D9246BE6], AccurateRip returned [64A0936E]
Track 15  cannot be verified as accurate (confidence 1)  [E8ACB76C], AccurateRip returned [AC67BECD]
Track 16  cannot be verified as accurate (confidence 1)  [812020A3], AccurateRip returned [24E590E8]
Track 17  cannot be verified as accurate (confidence 1)  [7B51FCC3], AccurateRip returned [149556A9]
Track 18  cannot be verified as accurate (confidence 1)  [BF6159B2], AccurateRip returned [BC032278]
Track 19  cannot be verified as accurate (confidence 1)  [8932388F], AccurateRip returned [72EC1C63]
Track 20  cannot be verified as accurate (confidence 1)  [F20E2A59], AccurateRip returned [A2743F15]
Track 21  cannot be verified as accurate (confidence 1)  [850207FB], AccurateRip returned [01451688]
No tracks could be verified as accurate
You may have a different pressing from the one(s) in the database
End of status report

Индексная карта (non-compilant .cue)

REM GENRE "Easy Listening"
REM DATE 2013
REM DISCID 2B113915
REM COMMENT "ExactAudioCopy v0.99pb5"
PERFORMER "Demis Roussos"
TITLE "Forever & Ever (the Best Of)"
FILE "Demis Roussos - Forever & Ever (the Best Of).ape" WAVE
  TRACK 01 AUDIO
    TITLE "Happy To Be On An Island In The Sun"
    PERFORMER "Demis Roussos"
    INDEX 01 00:00:00
  TRACK 02 AUDIO
    TITLE "Goodbye My Love Goodbye"
    PERFORMER "Demis Roussos"
    INDEX 01 03:06:31
  TRACK 03 AUDIO
    TITLE "Can't Say How Much I Love You"
    PERFORMER "Demis Roussos"
    INDEX 01 07:03:42
  TRACK 04 AUDIO
    TITLE "When Forever Has Gone"
    PERFORMER "Demis Roussos"
    INDEX 01 09:33:68
  TRACK 05 AUDIO
    TITLE "Forever And Ever"
    PERFORMER "Demis Roussos"
    INDEX 00 12:35:22
    INDEX 01 12:36:18
  TRACK 06 AUDIO
    TITLE "Sing An Ode To Love"
    PERFORMER "Demis Roussos"
    INDEX 00 16:13:18
    INDEX 01 16:13:41
  TRACK 07 AUDIO
    TITLE "So Dreamy"
    PERFORMER "Demis Roussos"
    INDEX 01 20:22:43
  TRACK 08 AUDIO
    TITLE "My Friend The Wind"
    PERFORMER "Demis Roussos"
    INDEX 00 23:26:71
    INDEX 01 23:27:38
  TRACK 09 AUDIO
    TITLE "I Dig You"
    PERFORMER "Demis Roussos"
    INDEX 00 27:16:38
    INDEX 01 27:18:07
  TRACK 10 AUDIO
    TITLE "Velvet Morning"
    PERFORMER "Demis Roussos"
    INDEX 00 31:20:25
    INDEX 01 31:21:03
  TRACK 11 AUDIO
    TITLE "My Only Fascination"
    PERFORMER "Demis Roussos"
    INDEX 00 34:59:46
    INDEX 01 35:00:61
  TRACK 12 AUDIO
    TITLE "From Souvenirs To Souvenirs"
    PERFORMER "Demis Roussos"
    INDEX 00 38:44:18
    INDEX 01 38:45:26
  TRACK 13 AUDIO
    TITLE "Mourir Aupres De Mon Amour"
    PERFORMER "Demis Roussos"
    INDEX 00 41:20:08
    INDEX 01 41:20:56
  TRACK 14 AUDIO
    TITLE "We Shall Dance"
    PERFORMER "Demis Roussos"
    INDEX 01 45:38:18
  TRACK 15 AUDIO
    TITLE "Lovely Lady Of Arcadia"
    PERFORMER "Demis Roussos"
    INDEX 00 49:07:10
    INDEX 01 49:07:63
  TRACK 16 AUDIO
    TITLE "My Reason"
    PERFORMER "Demis Roussos"
    INDEX 00 52:31:08
    INDEX 01 52:31:14
  TRACK 17 AUDIO
    TITLE "Rebecca"
    PERFORMER "Demis Roussos"
    INDEX 00 56:18:06
    INDEX 01 56:18:11
  TRACK 18 AUDIO
    TITLE "Because"
    PERFORMER "Demis Roussos"
    INDEX 00 59:44:11
    INDEX 01 59:45:08
  TRACK 19 AUDIO
    TITLE "Rain And Tears"
    PERFORMER "Demis Roussos"
    INDEX 00 63:58:28
    INDEX 01 63:58:45
  TRACK 20 AUDIO
    TITLE "She Came Up From The North"
    PERFORMER "Demis Roussos"
    INDEX 00 67:11:47
    INDEX 01 67:11:58
  TRACK 21 AUDIO
    TITLE "I Know I'll Do It Again"
    PERFORMER "Demis Roussos"
    INDEX 00 70:38:57
    INDEX 01 70:38:68
--
[Профиль] [ЛС]
Кто просматривает тему:

Форум Тема Автор Размер
World Pop (POP) Demis Roussos - 20 Super Hits - 2009, MP3, 320 kbps Magnat 163 MB
Показать сообщения:    

Текущее время: Сегодня 11:57

Часовой пояс: GMT



Вы не можете начинать темы
Вы не можете отвечать на сообщения
Вы не можете редактировать свои сообщения
Вы не можете удалять свои сообщения
Вы не можете голосовать в опросах
Вы не можете прикреплять файлы к сообщениям
Вы не можете скачивать файлы