(Hard Rock) Def Leppard - Greatest Hits (2CD) - 2010, FLAC (image+.cue), lossless

 
Автор Сообщение

sergej644 ®

Пол:

Стаж: 4 года 11 месяцев

Сообщений: 6038

Откуда: Soviet Union



Награды: Нет

Торрент-статистика

Создавать темы 10-Дек-2014 20:01

[Цитировать]

-Def Leppard - Greatest Hits-- Жанр: Hard Rock
Страна-производитель диска: Russia
Год издания диска: 2010
Издатель (лейбл): Mercury Records Limited
Номер по каталогу: 20378-1/2 (4607147891186)
Страна: United Kingdom
Аудиокодек: FLAC (*.flac)
Тип рипа: image+.cue
Битрейт аудио: lossless
Продолжительность: 02:39:48
Источник (релизер): Internet
Наличие сканов в содержимом раздачи: да-Def Leppard (искаженное англ. Deaf Leopard — глухой леопард) — британская рок-группа из Шеффилда, Йоркшир, Англия; образована в 1977 году. Их стилевая манера с годами претерпела ряд изменений, двигаясь от хард-рока к поп-року. Def Leppard дебютировали как NWOBHM-группа с альбомом On through the Night в 1980 году. Пик популярности этой группы пришёлся на 1984-89 годы, когда вышли их платиновые альбомы «Pyromania» и «Hysteria». Синглы с диска «Hysteria» оказались наиболее успешными за всю их карьеру: «Love Bites» (1-е место в США), «Pour Some Sugar On Me» (2-е место в США), «Armageddon It» (3-е место в США). В 1995 году были занесены в Книгу рекордов Гиннесса как единственные исполнители, выступившие на трёх континентах в течение одних суток.-

CD1

Треклист:
01. Nine Lives (feat. Tim McGraw) (3:32)
02. Now (4:00)
03. Promises (4:00)
04. Two Steps Behind (Acoustic Version) (4:17)
05. Slang (2:38)
06. Rocket (4:07)
07. Let's Get Rocked (4:57)
08. Love Bites (5:47)
09. Photograph (4:08)
10. Animal (4:05)
11. Let It Go (4:43)
12. Goodbye (3:36)
13. Rock Of Ages (4:08)
14. Make Love Like A Man (4:16)
15. When Love & Hate Collide (4:17)
16. Long Long Way To Go (4:39)
17. Action (3:40)
18. Work It Out (4:50)
19. Love (4:18)
Продолжительность: 01:19:57

Лог создания рипа

Exact Audio Copy V1.0 beta 1 from 15. November 2010
EAC extraction logfile from 18. June 2011, 9:15
Def Leppard / Greatest Hits (StarMark 20378-1)
Used drive  : ASUS    DRW-24B3ST   Adapter: 0  ID: 0
Read mode               : Secure
Utilize accurate stream : Yes
Defeat audio cache      : Yes
Make use of C2 pointers : No
Read offset correction                      : 6
Overread into Lead-In and Lead-Out          : No
Fill up missing offset samples with silence : Yes
Delete leading and trailing silent blocks   : No
Null samples used in CRC calculations       : Yes
Used interface                              : Native Win32 interface for Win NT & 2000
Used output format : Internal WAV Routines
Sample format      : 44.100 Hz; 16 Bit; Stereo
TOC of the extracted CD
     Track |   Start  |  Length  | Start sector | End sector
    ---------------------------------------------------------
        1  |  0:00.00 |  3:32.07 |         0    |    15906
        2  |  3:32.07 |  3:59.38 |     15907    |    33869
        3  |  7:31.45 |  3:59.55 |     33870    |    51849
        4  | 11:31.25 |  4:16.45 |     51850    |    71094
        5  | 15:47.70 |  2:37.63 |     71095    |    82932
        6  | 18:25.58 |  4:07.23 |     82933    |   101480
        7  | 22:33.06 |  4:56.60 |    101481    |   123740
        8  | 27:29.66 |  5:46.72 |    123741    |   149762
        9  | 33:16.63 |  4:08.30 |    149763    |   168392
       10  | 37:25.18 |  4:04.68 |    168393    |   186760
       11  | 41:30.11 |  4:43.00 |    186761    |   207985
       12  | 46:13.11 |  3:35.70 |    207986    |   224180
       13  | 49:49.06 |  4:08.28 |    224181    |   242808
       14  | 53:57.34 |  4:15.45 |    242809    |   261978
       15  | 58:13.04 |  4:17.12 |    261979    |   281265
       16  | 62:30.16 |  4:38.38 |    281266    |   302153
       17  | 67:08.54 |  3:40.30 |    302154    |   318683
       18  | 70:49.09 |  4:49.63 |    318684    |   340421
       19  | 75:38.72 |  4:17.45 |    340422    |   359741
Range status and errors
Selected range
     Filename F:\Audio in lossless\$ Def Leppard $\Def Leppard - Greatest Hits (2CD, StarMark 20378-1~2 )\Def Leppard - Greatest Hits (StarMark 20378-1).wav
     Peak level 100.0 %
     Extraction speed 0.4 X
     Range quality 99.9 %
     Copy CRC 21D58C35
     Copy OK
No errors occurred
AccurateRip summary
Track  1  accurately ripped (confidence 1)  [1FF9E963]
Track  2  accurately ripped (confidence 1)  [6E644CA1]
Track  3  accurately ripped (confidence 1)  [84CD482A]
Track  4  accurately ripped (confidence 1)  [7F2F8C1C]
Track  5  accurately ripped (confidence 1)  [BF5F6E7F]
Track  6  accurately ripped (confidence 1)  [07530347]
Track  7  accurately ripped (confidence 1)  [71C900B7]
Track  8  accurately ripped (confidence 1)  [0480C75E]
Track  9  accurately ripped (confidence 1)  [D4BD6EC1]
Track 10  accurately ripped (confidence 1)  [1AC8D5B4]
Track 11  accurately ripped (confidence 1)  [994FE58E]
Track 12  accurately ripped (confidence 1)  [C9EE7FAB]
Track 13  accurately ripped (confidence 1)  [EEEE90B7]
Track 14  accurately ripped (confidence 1)  [78AAAEEB]
Track 15  accurately ripped (confidence 1)  [A5CF59F9]
Track 16  accurately ripped (confidence 1)  [FB9F591A]
Track 17  accurately ripped (confidence 1)  [50ADA3ED]
Track 18  accurately ripped (confidence 1)  [F1C046ED]
Track 19  accurately ripped (confidence 1)  [28AD8132]
No tracks could be verified as accurate
End of status report

Содержание индексной карты (.CUE)

REM GENRE "Hard Rock"
REM DATE 2010
REM DISCID 1E12BC13
REM COMMENT "ExactAudioCopy v1.0b1"
PERFORMER "Def Leppard"
TITLE "Greatest Hits (StarMark 20378-1)"
FILE "Def Leppard - Greatest Hits (StarMark 20378-1).flac" WAVE
  TRACK 01 AUDIO
    TITLE "Nine Lives (feat. Tim McGraw)"
    PERFORMER "Def Leppard"
    FLAGS DCP
    INDEX 01 00:00:00
  TRACK 02 AUDIO
    TITLE "Now"
    PERFORMER "Def Leppard"
    FLAGS DCP
    INDEX 01 03:32:07
  TRACK 03 AUDIO
    TITLE "Promises"
    PERFORMER "Def Leppard"
    FLAGS DCP
    INDEX 01 07:31:45
  TRACK 04 AUDIO
    TITLE "Two Steps Behind (Acoustic Version)"
    PERFORMER "Def Leppard"
    FLAGS DCP
    INDEX 01 11:31:25
  TRACK 05 AUDIO
    TITLE "Slang"
    PERFORMER "Def Leppard"
    FLAGS DCP
    INDEX 01 15:47:70
  TRACK 06 AUDIO
    TITLE "Rocket"
    PERFORMER "Def Leppard"
    FLAGS DCP
    INDEX 01 18:25:58
  TRACK 07 AUDIO
    TITLE "Let's Get Rocked"
    PERFORMER "Def Leppard"
    FLAGS DCP
    INDEX 01 22:33:06
  TRACK 08 AUDIO
    TITLE "Love Bites"
    PERFORMER "Def Leppard"
    FLAGS DCP
    INDEX 01 27:29:66
  TRACK 09 AUDIO
    TITLE "Photograph"
    PERFORMER "Def Leppard"
    FLAGS DCP
    INDEX 01 33:16:63
  TRACK 10 AUDIO
    TITLE "Animal"
    PERFORMER "Def Leppard"
    FLAGS DCP
    INDEX 01 37:25:18
  TRACK 11 AUDIO
    TITLE "Let It Go"
    PERFORMER "Def Leppard"
    FLAGS DCP
    INDEX 01 41:30:11
  TRACK 12 AUDIO
    TITLE "Goodbye"
    PERFORMER "Def Leppard"
    FLAGS DCP
    INDEX 01 46:13:11
  TRACK 13 AUDIO
    TITLE "Rock Of Ages"
    PERFORMER "Def Leppard"
    FLAGS DCP
    INDEX 01 49:49:06
  TRACK 14 AUDIO
    TITLE "Make Love Like A Man"
    PERFORMER "Def Leppard"
    FLAGS DCP
    INDEX 01 53:57:34
  TRACK 15 AUDIO
    TITLE "When Love & Hate Collide"
    PERFORMER "Def Leppard"
    FLAGS DCP
    INDEX 01 58:13:04
  TRACK 16 AUDIO
    TITLE "Long Long Way To Go"
    PERFORMER "Def Leppard"
    FLAGS DCP
    INDEX 01 62:30:16
  TRACK 17 AUDIO
    TITLE "Action"
    PERFORMER "Def Leppard"
    FLAGS DCP
    INDEX 01 67:08:54
  TRACK 18 AUDIO
    TITLE "Work It Out"
    PERFORMER "Def Leppard"
    FLAGS DCP
    INDEX 01 70:49:09
  TRACK 19 AUDIO
    TITLE "Love"
    PERFORMER "Def Leppard"
    FLAGS DCP
    INDEX 01 75:38:72

Скриншот спектра частот

CD2

Треклист:
01. C'mon C'mon (4:11)
02. No Matter What (2:53)
03. Everyday (3:10)
04. Bad Actress (3:06)
05. Miss You In A Heartbeat (4:06)
06. Paper Sun (5:29)
07. All I Want Is Everything (5:22)
08. Armageddon It (5:26)
09. High 'n' Dry (Saturday Night) (3:29)
10. Too Late For Love (4:29)
11. Pour Some Sugar On Me (4:29)
12. Heaven Is (3:36)
13. Foolin' (4:36)
14. Hysteria (5:57)
15. Have You Ever Needed Someone So Bad (5:26)
16. Women (5:45)
17. Wasted (3:47)
18. Bringin' On The Heartbreak (4:34)
Продолжительность: 01:19:51

Лог создания рипа

Exact Audio Copy V1.0 beta 1 from 15. November 2010
EAC extraction logfile from 18. June 2011, 9:49
Def Leppard / Greatest Hits (StarMark 20378-2)
Used drive  : ASUS    DRW-24B3ST   Adapter: 0  ID: 0
Read mode               : Secure
Utilize accurate stream : Yes
Defeat audio cache      : Yes
Make use of C2 pointers : No
Read offset correction                      : 6
Overread into Lead-In and Lead-Out          : No
Fill up missing offset samples with silence : Yes
Delete leading and trailing silent blocks   : No
Null samples used in CRC calculations       : Yes
Used interface                              : Native Win32 interface for Win NT & 2000
Used output format : Internal WAV Routines
Sample format      : 44.100 Hz; 16 Bit; Stereo
TOC of the extracted CD
     Track |   Start  |  Length  | Start sector | End sector
    ---------------------------------------------------------
        1  |  0:00.00 |  4:11.08 |         0    |    18832
        2  |  4:11.08 |  2:53.04 |     18833    |    31811
        3  |  7:04.12 |  3:10.29 |     31812    |    46090
        4  | 10:14.41 |  3:05.62 |     46091    |    60027
        5  | 13:20.28 |  4:06.23 |     60028    |    78500
        6  | 17:26.51 |  5:29.20 |     78501    |   103195
        7  | 22:55.71 |  5:22.12 |    103196    |   127357
        8  | 28:18.08 |  5:25.43 |    127358    |   151775
        9  | 33:43.51 |  3:28.57 |    151776    |   167432
       10  | 37:12.33 |  4:28.70 |    167433    |   187602
       11  | 41:41.28 |  4:29.10 |    187603    |   207787
       12  | 46:10.38 |  3:35.62 |    207788    |   223974
       13  | 49:46.25 |  4:35.68 |    223975    |   244667
       14  | 54:22.18 |  5:56.45 |    244668    |   271412
       15  | 60:18.63 |  5:25.70 |    271413    |   295857
       16  | 65:44.58 |  5:45.02 |    295858    |   321734
       17  | 71:29.60 |  3:47.22 |    321735    |   338781
       18  | 75:17.07 |  4:33.55 |    338782    |   359311
Range status and errors
Selected range
     Filename F:\Audio in lossless\$ Def Leppard $\Def Leppard - Greatest Hits (2CD, StarMark 20378-1~2 )\Def Leppard - Greatest Hits (StarMark 20378-2).wav
     Peak level 100.0 %
     Extraction speed 0.4 X
     Range quality 100.0 %
     Copy CRC 21D58C35
     Copy OK
No errors occurred
AccurateRip summary
Track  1  accurately ripped (confidence 1)  [14DA72E0]
Track  2  accurately ripped (confidence 1)  [E4EA8BDC]
Track  3  accurately ripped (confidence 1)  [8FE9BC98]
Track  4  accurately ripped (confidence 1)  [629DF703]
Track  5  accurately ripped (confidence 1)  [09979FD3]
Track  6  accurately ripped (confidence 1)  [06994EF3]
Track  7  accurately ripped (confidence 1)  [E2336D2B]
Track  8  accurately ripped (confidence 1)  [234F0381]
Track  9  accurately ripped (confidence 1)  [56BA1F17]
Track 10  accurately ripped (confidence 1)  [C0999875]
Track 11  accurately ripped (confidence 1)  [28224C57]
Track 12  accurately ripped (confidence 1)  [5B1F550C]
Track 13  accurately ripped (confidence 1)  [1E24B7C5]
Track 14  accurately ripped (confidence 1)  [5779848C]
Track 15  accurately ripped (confidence 1)  [1DF65049]
Track 16  accurately ripped (confidence 1)  [06366DB9]
Track 17  accurately ripped (confidence 1)  [EE91EC16]
Track 18  accurately ripped (confidence 1)  [EE95599F]
All tracks accurately ripped
End of status report

Содержание индексной карты (.CUE)

REM GENRE "Hard Rock"
REM DATE 2010
REM DISCID F412B612
REM COMMENT "ExactAudioCopy v1.0b1"
PERFORMER "Def Leppard"
TITLE "Greatest Hits (StarMark 20378-2)"
FILE "Def Leppard - Greatest Hits (StarMark 20378-2).flac" WAVE
  TRACK 01 AUDIO
    TITLE "C'mon C'mon"
    PERFORMER "Def Leppard"
    FLAGS DCP
    INDEX 01 00:00:00
  TRACK 02 AUDIO
    TITLE "No Matter What"
    PERFORMER "Def Leppard"
    FLAGS DCP
    INDEX 00 04:09:08
    INDEX 01 04:11:08
  TRACK 03 AUDIO
    TITLE "Everyday"
    PERFORMER "Def Leppard"
    FLAGS DCP
    INDEX 00 07:02:12
    INDEX 01 07:04:12
  TRACK 04 AUDIO
    TITLE "Bad Actress"
    PERFORMER "Def Leppard"
    FLAGS DCP
    INDEX 00 10:12:41
    INDEX 01 10:14:41
  TRACK 05 AUDIO
    TITLE "Miss You In A Heartbeat"
    PERFORMER "Def Leppard"
    FLAGS DCP
    INDEX 00 13:18:28
    INDEX 01 13:20:28
  TRACK 06 AUDIO
    TITLE "Paper Sun"
    PERFORMER "Def Leppard"
    FLAGS DCP
    INDEX 00 17:24:51
    INDEX 01 17:26:51
  TRACK 07 AUDIO
    TITLE "All I Want Is Everything"
    PERFORMER "Def Leppard"
    FLAGS DCP
    INDEX 00 22:53:71
    INDEX 01 22:55:71
  TRACK 08 AUDIO
    TITLE "Armageddon It"
    PERFORMER "Def Leppard"
    FLAGS DCP
    INDEX 00 28:16:08
    INDEX 01 28:18:08
  TRACK 09 AUDIO
    TITLE "High 'n' Dry (Saturday Night)"
    PERFORMER "Def Leppard"
    FLAGS DCP
    INDEX 00 33:41:51
    INDEX 01 33:43:51
  TRACK 10 AUDIO
    TITLE "Too Late For Love"
    PERFORMER "Def Leppard"
    FLAGS DCP
    INDEX 00 37:10:33
    INDEX 01 37:12:33
  TRACK 11 AUDIO
    TITLE "Pour Some Sugar On Me"
    PERFORMER "Def Leppard"
    FLAGS DCP
    INDEX 00 41:39:28
    INDEX 01 41:41:28
  TRACK 12 AUDIO
    TITLE "Heaven Is"
    PERFORMER "Def Leppard"
    FLAGS DCP
    INDEX 00 46:08:38
    INDEX 01 46:10:38
  TRACK 13 AUDIO
    TITLE "Foolin'"
    PERFORMER "Def Leppard"
    FLAGS DCP
    INDEX 00 49:44:25
    INDEX 01 49:46:25
  TRACK 14 AUDIO
    TITLE "Hysteria"
    PERFORMER "Def Leppard"
    FLAGS DCP
    INDEX 00 54:20:18
    INDEX 01 54:22:18
  TRACK 15 AUDIO
    TITLE "Have You Ever Needed Someone So Bad"
    PERFORMER "Def Leppard"
    FLAGS DCP
    INDEX 00 60:16:63
    INDEX 01 60:18:63
  TRACK 16 AUDIO
    TITLE "Women"
    PERFORMER "Def Leppard"
    FLAGS DCP
    INDEX 00 65:42:58
    INDEX 01 65:44:58
  TRACK 17 AUDIO
    TITLE "Wasted"
    PERFORMER "Def Leppard"
    FLAGS DCP
    INDEX 00 71:27:60
    INDEX 01 71:29:60
  TRACK 18 AUDIO
    TITLE "Bringin' On The Heartbreak"
    PERFORMER "Def Leppard"
    FLAGS DCP
    INDEX 00 75:15:07
    INDEX 01 75:17:07

Скриншот спектра частот

-

Лог проверки качества

AUDIOCHECKER v2.0 beta (build 457) - by Dester - opdester@freemail.hu
~~~~~~~~~~~~~~~~~~~~~~~~~~~~~~~~~~
-=== DO NOT EDIT THIS FILE! ===-
Path: ...\Def Leppard - Greatest Hits (2CD, StarMark 20378-1~2 )
1 -=- Def Leppard - Greatest Hits (StarMark 20378-1).flac -=- CDDA (100%)
2 -=- Def Leppard - Greatest Hits (StarMark 20378-1).wav -=- CDDA (100%)
3 -=- Def Leppard - Greatest Hits (StarMark 20378-2).flac -=- CDDA (100%)
4 -=- Def Leppard - Greatest Hits (StarMark 20378-2).wav -=- CDDA (100%)
Summary 100,00% CDDA
42816852
[Профиль] [ЛС]
Показать сообщения:    

Текущее время: Сегодня 14:36

Часовой пояс: GMT



Вы не можете начинать темы
Вы не можете отвечать на сообщения
Вы не можете редактировать свои сообщения
Вы не можете удалять свои сообщения
Вы не можете голосовать в опросах
Вы не можете прикреплять файлы к сообщениям
Вы не можете скачивать файлы