Deep Purple - Vincent Price [2013 г.] (Hard Rock) [WEB-DLRip-AVC, 1080p]

 
Автор Сообщение

sergej644 ®

Пол:

Стаж: 4 года 11 месяцев

Сообщений: 6046

Откуда: Soviet Union



Награды: Нет

Торрент-статистика

Создавать темы 05-Янв-2016 15:12

[Цитировать]

-Deep Purple - Vincent Price--
Год выпуска: 2013 г.
Страна: UK
Жанр: Hard Rock
Продолжительность: 00:04:46-Качество видео: WEB-DLRip-AVC
Контейнер: MP4
Стандарт разрешения: 1080p
Видео кодек: AVC
Аудио кодек: AAC
Видео: 1920x1080, 3735 Кбит/сек, 25,000 кадров/сек, 0.072 bit/pic
Аудио: 512 Кбит/сек, 2 канала, 44,1 КГц
- -

Трэклист

01. Vincent Price

Media Info

Общее
Полное имя                               : D:\Torrent files\Best Rock Video\Best Rock Video 2013\Deep Purple - Vincent Price.mp4
Формат                                   : MPEG-4
Профиль формата                          : Base Media
Идентификатор кодека                     : isom
Размер файла                             : 144 Мбайт
Продолжительность                        : 4 м. 46 с.
Режим общего битрейта                    : Переменный
Общий поток                              : 4221 Кбит/сек
Дата кодирования                         : UTC 2013-06-08 20:19:27
Дата пометки                             : UTC 2013-06-08 20:19:27
Программа кодирования                    : Yamb 2.1.0.0 [http://yamb.unite-video.com]
Видео
Идентификатор                            : 1
Формат                                   : AVC
Формат/Информация                        : Advanced Video Codec
Профиль формата                          : High@L4
Параметр CABAC формата                   : Да
Параметр ReFrames формата                : 1 кадр
Идентификатор кодека                     : avc1
Идентификатор кодека/Информация          : Advanced Video Coding
Продолжительность                        : 4 м. 44 с.
Битрейт                                  : 3735 Кбит/сек
Максимальный битрейт                     : 7407 Кбит/сек
Ширина                                   : 1920 пикселей
Высота                                   : 1080 пикселей
Соотношение сторон                       : 16:9
Режим частоты кадров                     : Постоянный
Частота кадров                           : 25,000 кадров/сек
Цветовое пространство                    : YUV
Субдискретизация насыщенности            : 4:2:0
Битовая глубина                          : 8 бит
Тип развёртки                            : Прогрессивная
Бит/(Пиксели*Кадры)                      : 0.072
Размер потока                            : 127 Мбайт (88%)
Язык                                     : English
Дата пометки                             : UTC 2013-06-08 20:19:32
Аудио
Идентификатор                            : 2
Формат                                   : AAC
Формат/Информация                        : Advanced Audio Codec
Профиль формата                          : LC
Идентификатор кодека                     : 40
Продолжительность                        : 4 м. 46 с.
Вид битрейта                             : Переменный
Битрейт                                  : 512 Кбит/сек
Максимальный битрейт                     : 535 Кбит/сек
Каналы                                   : 2 канала
Расположение каналов                     : Front: L R
Частота                                  : 44,1 КГц
Метод сжатия                             : С потерями
Размер потока                            : 17,5 Мбайт (12%)
Язык                                     : English
Дата кодирования                         : UTC 2013-06-08 20:19:32
Дата пометки                             : UTC 2013-06-08 20:19:32
-

Скриншоты

-
[Профиль] [ЛС]
Показать сообщения:    

Текущее время: Сегодня 17:41

Часовой пояс: GMT



Вы не можете начинать темы
Вы не можете отвечать на сообщения
Вы не можете редактировать свои сообщения
Вы не можете удалять свои сообщения
Вы не можете голосовать в опросах
Вы не можете прикреплять файлы к сообщениям
Вы не можете скачивать файлы