Deep Purple ...To The Rising Sun (In Tokyo) [2015, Rock, Blu-ray]

 
Автор Сообщение

sergej644 ®

Пол:

Стаж: 4 года 11 месяцев

Сообщений: 6042

Откуда: Soviet Union



Награды: Нет

Торрент-статистика

Создавать темы 20-Сен-2015 20:17

[Цитировать]


...To The Rising Sun
In Tokyo

Жанр: Rock
Продолжительность: 01:51:58
Год выпуска: September 18, 2015
ASIN: B0109Q488O-01. Apres Vous
02. Into The Fire
03. Hard Lovin‘ Man
04. Strange Kind Of Woman
05. Vincent Price
06. Contact Lost
07. Uncommon Man
08. The Well-Dressed Guitar
09. The Mule
10. Above And Beyond
11. Lazy
12. Hell To Pay
13. Don Airey’s Solo
14. Perfect Strangers
15. Space Truckin‘
16. Smoke On The Water
17. Green Onions / Hush
18. Black Night
-Качество: Blu-ray
Контейнер: BDMV
Видео кодек: MPEG-4
Аудио кодек: DTS
Видео: MPEG-4 AVC Video 19999 kbps 1080i / 29.970 fps / 16:9 / High Profile 4.1
Аудио 1: DTS-HD Master Audio English 1329 kbps 2.0 / 48 kHz / 1329 kbps / 16-bit
Аудио 2: DTS-HD Master Audio English 2547 kbps 5.1 / 48 kHz / 2547 kbps / 16-bit

Отчёт MediaInfo / BDInfo

Disc Title: Deep Purple ...To The Rising Sun (In Tokyo) Blu-rayDisc Size: 21 385 988 421 bytesProtection: AACSBD-Java: NoBDInfo: 0.5.8
Notes:
BDINFO HOME: Cinema Squid http://www.cinemasquid.com/blu-ray/tools/bdinfo
INCLUDES FORUMS REPORT FOR: AVS Forum Blu-ray Audio and Video Specifications Thread http://www.avsforum.com/avs-vb/showthread.php?t=1155731
********************PLAYLIST: 01004.MPLS********************
Total   Video
Title                                                           Codec   Length  Movie Size      Disc Size       Bitrate Bitrate Main Audio Track                          Secondary Audio Track
-----                                                           ------  ------- --------------  --------------  ------- ------- ------------------                        ---------------------
01004.MPLS                                                      AVC     1:51:58 21 252 440 064  21 385 988 421  25,31   20,00   DTS-HD Master 2.0 1329Kbps (48kHz/16-bit) DTS-HD Master 5.1 2547Kbps (48kHz/16-bit)
DISC INFO:
Disc Title:     Deep Purple  ...To The Rising Sun (In Tokyo) Blu-ray
Disc Size:      21 385 988 421 bytes
Protection:     AACS
BD-Java:        No
BDInfo:         0.5.8
PLAYLIST REPORT:
Name:                   01004.MPLS
Length:                 1:51:58.311 (h:m:s.ms)
Size:                   21 252 440 064 bytes
Total Bitrate:          25,31 Mbps
VIDEO:
Codec                   Bitrate             Description
-----                   -------             -----------
MPEG-4 AVC Video        19999 kbps          1080i / 29,970 fps / 16:9 / High Profile 4.1
AUDIO:
Codec                           Language        Bitrate         Description
-----                           --------        -------         -----------
DTS-HD Master Audio             English         1329 kbps       2.0 / 48 kHz / 1329 kbps / 16-bit (DTS Core: 2.0 / 48 kHz / 768 kbps / 16-bit / DN -4dB)
DTS-HD Master Audio             English         2547 kbps       5.1 / 48 kHz / 2547 kbps / 16-bit (DTS Core: 5.1 / 48 kHz / 768 kbps / 16-bit / DN -4dB)
FILES:
Name            Time In         Length          Size            Total Bitrate
----            -------         ------          ----            -------------
00004.M2TS      0:00:00.000     1:51:57.977     21 252 427 776  25 308
00007.M2TS      1:51:57.977     0:00:00.333     12 288          295
CHAPTERS:
Number          Time In         Length          Avg Video Rate  Max 1-Sec Rate  Max 1-Sec Time  Max 5-Sec Rate  Max 5-Sec Time  Max 10Sec Rate  Max 10Sec Time  Avg Frame Size  Max Frame Size  Max Frame Time
------          -------         ------          --------------  --------------  --------------  --------------  --------------  --------------  --------------  --------------  --------------  --------------
1               0:00:00.000     0:02:10.096     9 574 kbps      28 773 kbps     00:00:01.401    17 930 kbps     00:00:01.001    15 197 kbps     00:00:14.381    39 920 bytes    357 522 bytes   00:00:03.203
2               0:02:10.096     0:04:48.588     21 047 kbps     46 356 kbps     00:02:27.914    35 783 kbps     00:06:51.778    30 001 kbps     00:02:18.938    87 782 bytes    469 046 bytes   00:06:29.956
3               0:06:58.684     0:03:21.334     23 703 kbps     50 900 kbps     00:07:19.005    35 557 kbps     00:09:34.340    30 010 kbps     00:06:58.818    98 861 bytes    488 615 bytes   00:09:57.029
4               0:10:20.019     0:06:47.807     21 654 kbps     48 211 kbps     00:13:55.367    33 808 kbps     00:10:26.993    30 162 kbps     00:16:31.690    90 315 bytes    439 166 bytes   00:16:34.360
5               0:17:07.826     0:06:32.125     19 668 kbps     51 268 kbps     00:18:02.548    31 449 kbps     00:18:07.686    28 609 kbps     00:17:08.427    82 034 bytes    472 783 bytes   00:18:02.581
6               0:23:39.951     0:04:52.158     21 407 kbps     48 989 kbps     00:27:51.069    35 348 kbps     00:25:44.709    32 782 kbps     00:25:39.571    89 286 bytes    400 250 bytes   00:24:51.723
7               0:28:32.110     0:02:48.935     19 983 kbps     41 569 kbps     00:30:43.708    35 775 kbps     00:30:50.982    32 864 kbps     00:30:50.982    83 346 bytes    352 662 bytes   00:31:01.292
8               0:31:21.045     0:07:04.824     21 035 kbps     45 578 kbps     00:34:05.910    33 408 kbps     00:32:38.189    29 692 kbps     00:32:36.988    87 740 bytes    510 319 bytes   00:34:07.812
9               0:38:25.870     0:03:00.013     21 775 kbps     39 097 kbps     00:38:36.480    28 593 kbps     00:38:33.010    27 333 kbps     00:40:28.826    90 819 bytes    371 796 bytes   00:38:36.547
10              0:41:25.883     0:06:22.081     21 163 kbps     50 228 kbps     00:42:06.557    34 998 kbps     00:44:10.414    32 843 kbps     00:44:10.414    88 266 bytes    473 676 bytes   00:42:06.824
11              0:47:47.965     0:05:01.200     18 753 kbps     47 222 kbps     00:51:30.954    34 787 kbps     00:51:30.921    29 977 kbps     00:49:42.612    78 214 bytes    476 369 bytes   00:49:50.420
12              0:52:49.165     0:08:45.057     20 290 kbps     52 274 kbps     00:58:37.280    31 797 kbps     01:01:17.774    27 414 kbps     01:01:13.269    84 626 bytes    496 055 bytes   00:56:25.648
13              1:01:34.223     0:05:19.152     21 335 kbps     38 457 kbps     01:03:52.094    32 028 kbps     01:06:33.222    28 219 kbps     01:06:31.287    88 985 bytes    416 616 bytes   01:06:33.889
14              1:06:53.376     0:05:55.521     16 769 kbps     33 534 kbps     01:09:17.953    31 428 kbps     01:09:17.953    28 693 kbps     01:09:17.953    69 941 bytes    258 287 bytes   01:09:17.987
15              1:12:48.897     0:06:28.087     17 799 kbps     47 881 kbps     01:14:03.338    32 791 kbps     01:14:24.993    28 269 kbps     01:16:58.947    74 235 bytes    399 068 bytes   01:14:03.472
16              1:19:16.985     0:04:51.991     20 652 kbps     48 993 kbps     01:21:09.130    31 984 kbps     01:24:00.602    26 261 kbps     01:21:06.995    86 135 bytes    398 290 bytes   01:21:09.197
17              1:24:08.977     0:09:08.981     20 194 kbps     45 968 kbps     01:26:40.995    35 458 kbps     01:31:07.195    32 302 kbps     01:31:07.795    84 224 bytes    517 126 bytes   01:31:13.801
18              1:33:17.959     0:08:03.182     20 118 kbps     45 733 kbps     01:35:37.631    35 011 kbps     01:35:37.164    28 046 kbps     01:34:25.359    83 910 bytes    712 088 bytes   01:35:39.834
19              1:41:21.141     0:10:37.169     19 359 kbps     49 067 kbps     01:43:21.528    30 807 kbps     01:42:16.530    26 674 kbps     01:42:14.962    80 746 bytes    393 097 bytes   01:43:22.029
STREAM DIAGNOSTICS:
File            PID             Type            Codec           Language                Seconds                 Bitrate                 Bytes           Packets
----            ---             ----            -----           --------                --------------          --------------          -------------   -----
00004.M2TS      4113 (0x1011)   0x1B            AVC                                     6717,878                20 000                  16 794 744 215  91 393 718
00004.M2TS      4352 (0x1100)   0x86            DTS-HD MA       eng (English)           6717,878                1 330                   1 116 448 056   6 723 474
00004.M2TS      4353 (0x1101)   0x86            DTS-HD MA       eng (English)           6717,878                2 547                   2 138 750 416   12 274 006
00007.M2TS      4113 (0x1011)   0x1B            AVC                                     0,200                   181                     4 535           32
QUICK SUMMARY:
Disc Title: Deep Purple ...To The Rising Sun (In Tokyo) Blu-rayDisc Size: 21 385 988 421 bytesProtection: AACSBD-Java: NoPlaylist: 01004.MPLSSize: 21 252 440 064 bytesLength: 1:51:58.311Total Bitrate: 25,31 MbpsVideo: MPEG-4 AVC Video / 19999 kbps / 1080i / 29,970 fps / 16:9 / High Profile 4.1Audio: English / DTS-HD Master Audio / 2.0 / 48 kHz / 1329 kbps / 16-bit (DTS Core: 2.0 / 48 kHz / 768 kbps / 16-bit / DN -4dB)Audio: English / DTS-HD Master Audio / 5.1 / 48 kHz / 2547 kbps / 16-bit (DTS Core: 5.1 / 48 kHz / 768 kbps / 16-bit / DN -4dB)
********************PLAYLIST: 00004.MPLS********************
Total   Video
Title                                                           Codec   Length  Movie Size      Disc Size       Bitrate Bitrate Main Audio Track                          Secondary Audio Track
-----                                                           ------  ------- --------------  --------------  ------- ------- ------------------                        ---------------------
00004.MPLS                                                      AVC     1:51:57 21 252 427 776  21 385 988 421  25,31   20,00   DTS-HD Master 2.0 1330Kbps (48kHz/16-bit) DTS-HD Master 5.1 2547Kbps (48kHz/16-bit)
DISC INFO:
Disc Title:     Deep Purple  ...To The Rising Sun (In Tokyo) Blu-ray
Disc Size:      21 385 988 421 bytes
Protection:     AACS
BD-Java:        No
BDInfo:         0.5.8
PLAYLIST REPORT:
Name:                   00004.MPLS
Length:                 1:51:57.977 (h:m:s.ms)
Size:                   21 252 427 776 bytes
Total Bitrate:          25,31 Mbps
VIDEO:
Codec                   Bitrate             Description
-----                   -------             -----------
MPEG-4 AVC Video        20000 kbps          1080i / 29,970 fps / 16:9 / High Profile 4.1
AUDIO:
Codec                           Language        Bitrate         Description
-----                           --------        -------         -----------
DTS-HD Master Audio             English         1330 kbps       2.0 / 48 kHz / 1330 kbps / 16-bit (DTS Core: 2.0 / 48 kHz / 768 kbps / 16-bit / DN -4dB)
DTS-HD Master Audio             English         2547 kbps       5.1 / 48 kHz / 2547 kbps / 16-bit (DTS Core: 5.1 / 48 kHz / 768 kbps / 16-bit / DN -4dB)
FILES:
Name            Time In         Length          Size            Total Bitrate
----            -------         ------          ----            -------------
00004.M2TS      0:00:00.000     1:51:57.977     21 252 427 776  25 308
CHAPTERS:
Number          Time In         Length          Avg Video Rate  Max 1-Sec Rate  Max 1-Sec Time  Max 5-Sec Rate  Max 5-Sec Time  Max 10Sec Rate  Max 10Sec Time  Avg Frame Size  Max Frame Size  Max Frame Time
------          -------         ------          --------------  --------------  --------------  --------------  --------------  --------------  --------------  --------------  --------------  --------------
1               0:00:00.000     1:51:57.977     20 000 kbps     52 274 kbps     00:58:37.280    35 783 kbps     00:06:51.778    32 864 kbps     00:30:50.982    83 416 bytes    712 088 bytes   01:35:39.834
STREAM DIAGNOSTICS:
File            PID             Type            Codec           Language                Seconds                 Bitrate                 Bytes           Packets
----            ---             ----            -----           --------                --------------          --------------          -------------   -----
00004.M2TS      4113 (0x1011)   0x1B            AVC                                     6717,878                20 000                  16 794 744 215  91 393 718
00004.M2TS      4352 (0x1100)   0x86            DTS-HD MA       eng (English)           6717,878                1 330                   1 116 448 056   6 723 474
00004.M2TS      4353 (0x1101)   0x86            DTS-HD MA       eng (English)           6717,878                2 547                   2 138 750 416   12 274 006
QUICK SUMMARY:
Disc Title: Deep Purple ...To The Rising Sun (In Tokyo) Blu-rayDisc Size: 21 385 988 421 bytesProtection: AACSBD-Java: NoPlaylist: 00004.MPLSSize: 21 252 427 776 bytesLength: 1:51:57.977Total Bitrate: 25,31 MbpsVideo: MPEG-4 AVC Video / 20000 kbps / 1080i / 29,970 fps / 16:9 / High Profile 4.1Audio: English / DTS-HD Master Audio / 2.0 / 48 kHz / 1330 kbps / 16-bit (DTS Core: 2.0 / 48 kHz / 768 kbps / 16-bit / DN -4dB)Audio: English / DTS-HD Master Audio / 5.1 / 48 kHz / 2547 kbps / 16-bit (DTS Core: 5.1 / 48 kHz / 768 kbps / 16-bit / DN -4dB)
********************PLAYLIST: 00003.MPLS********************
Total   Video
Title                                                           Codec   Length  Movie Size      Disc Size       Bitrate Bitrate Main Audio Track                          Secondary Audio Track
-----                                                           ------  ------- --------------  --------------  ------- ------- ------------------                        ---------------------
00003.MPLS                                                      AVC     0:01:00 124 059 648     21 385 988 421  16,52   14,26   DTS-HD Master 2.0 1345Kbps (48kHz/16-bit)
DISC INFO:
Disc Title:     Deep Purple  ...To The Rising Sun (In Tokyo) Blu-ray
Disc Size:      21 385 988 421 bytes
Protection:     AACS
BD-Java:        No
BDInfo:         0.5.8
PLAYLIST REPORT:
Name:                   00003.MPLS
Length:                 0:01:00.060 (h:m:s.ms)
Size:                   124 059 648 bytes
Total Bitrate:          16,52 Mbps
VIDEO:
Codec                   Bitrate             Description
-----                   -------             -----------
MPEG-4 AVC Video        14260 kbps          1080p / 23,976 fps / 16:9 / High Profile 4.1
AUDIO:
Codec                           Language        Bitrate         Description
-----                           --------        -------         -----------
DTS-HD Master Audio             English         1345 kbps       2.0 / 48 kHz / 1345 kbps / 16-bit (DTS Core: 2.0 / 48 kHz / 768 kbps / 16-bit / DN -4dB)
FILES:
Name            Time In         Length          Size            Total Bitrate
----            -------         ------          ----            -------------
00003.M2TS      0:00:00.000     0:01:00.060     124 059 648     16 525
CHAPTERS:
Number          Time In         Length          Avg Video Rate  Max 1-Sec Rate  Max 1-Sec Time  Max 5-Sec Rate  Max 5-Sec Time  Max 10Sec Rate  Max 10Sec Time  Avg Frame Size  Max Frame Size  Max Frame Time
------          -------         ------          --------------  --------------  --------------  --------------  --------------  --------------  --------------  --------------  --------------  --------------
1               0:00:00.000     0:01:00.060     14 260 kbps     17 949 kbps     00:00:49.549    16 257 kbps     00:00:47.922    15 709 kbps     00:00:45.045    74 345 bytes    876 371 bytes   00:00:54.054
STREAM DIAGNOSTICS:
File            PID             Type            Codec           Language                Seconds                 Bitrate                 Bytes           Packets
----            ---             ----            -----           --------                --------------          --------------          -------------   -----
00003.M2TS      4113 (0x1011)   0x1B            AVC                                     59,935                  14 290                  107 057 486     582 677
00003.M2TS      4352 (0x1100)   0x86            DTS-HD MA       eng (English)           59,935                  1 348                   10 096 636      60 753
QUICK SUMMARY:
Disc Title: Deep Purple ...To The Rising Sun (In Tokyo) Blu-rayDisc Size: 21 385 988 421 bytesProtection: AACSBD-Java: NoPlaylist: 00003.MPLSSize: 124 059 648 bytesLength: 0:01:00.060Total Bitrate: 16,52 MbpsVideo: MPEG-4 AVC Video / 14260 kbps / 1080p / 23,976 fps / 16:9 / High Profile 4.1Audio: English / DTS-HD Master Audio / 2.0 / 48 kHz / 1345 kbps / 16-bit (DTS Core: 2.0 / 48 kHz / 768 kbps / 16-bit / DN -4dB)
********************PLAYLIST: 01003.MPLS********************
Total   Video
Title                                                           Codec   Length  Movie Size      Disc Size       Bitrate Bitrate Main Audio Track                          Secondary Audio Track
-----                                                           ------  ------- --------------  --------------  ------- ------- ------------------                        ---------------------
01003.MPLS                                                      AVC     0:01:00 124 059 648     21 385 988 421  16,52   14,26   DTS-HD Master 2.0 1345Kbps (48kHz/16-bit)
DISC INFO:
Disc Title:     Deep Purple  ...To The Rising Sun (In Tokyo) Blu-ray
Disc Size:      21 385 988 421 bytes
Protection:     AACS
BD-Java:        No
BDInfo:         0.5.8
PLAYLIST REPORT:
Name:                   01003.MPLS
Length:                 0:01:00.060 (h:m:s.ms)
Size:                   124 059 648 bytes
Total Bitrate:          16,52 Mbps
VIDEO:
Codec                   Bitrate             Description
-----                   -------             -----------
MPEG-4 AVC Video        14260 kbps          1080p / 23,976 fps / 16:9 / High Profile 4.1
AUDIO:
Codec                           Language        Bitrate         Description
-----                           --------        -------         -----------
DTS-HD Master Audio             English         1345 kbps       2.0 / 48 kHz / 1345 kbps / 16-bit (DTS Core: 2.0 / 48 kHz / 768 kbps / 16-bit / DN -4dB)
FILES:
Name            Time In         Length          Size            Total Bitrate
----            -------         ------          ----            -------------
00003.M2TS      0:00:00.000     0:01:00.060     124 059 648     16 525
CHAPTERS:
Number          Time In         Length          Avg Video Rate  Max 1-Sec Rate  Max 1-Sec Time  Max 5-Sec Rate  Max 5-Sec Time  Max 10Sec Rate  Max 10Sec Time  Avg Frame Size  Max Frame Size  Max Frame Time
------          -------         ------          --------------  --------------  --------------  --------------  --------------  --------------  --------------  --------------  --------------  --------------
1               0:00:00.000     0:01:00.060     14 260 kbps     17 949 kbps     00:00:49.549    16 257 kbps     00:00:47.922    15 709 kbps     00:00:45.045    74 345 bytes    876 371 bytes   00:00:54.054
STREAM DIAGNOSTICS:
File            PID             Type            Codec           Language                Seconds                 Bitrate                 Bytes           Packets
----            ---             ----            -----           --------                --------------          --------------          -------------   -----
00003.M2TS      4113 (0x1011)   0x1B            AVC                                     59,935                  14 290                  107 057 486     582 677
00003.M2TS      4352 (0x1100)   0x86            DTS-HD MA       eng (English)           59,935                  1 348                   10 096 636      60 753
QUICK SUMMARY:
Disc Title: Deep Purple ...To The Rising Sun (In Tokyo) Blu-rayDisc Size: 21 385 988 421 bytesProtection: AACSBD-Java: NoPlaylist: 01003.MPLSSize: 124 059 648 bytesLength: 0:01:00.060Total Bitrate: 16,52 MbpsVideo: MPEG-4 AVC Video / 14260 kbps / 1080p / 23,976 fps / 16:9 / High Profile 4.1Audio: English / DTS-HD Master Audio / 2.0 / 48 kHz / 1345 kbps / 16-bit (DTS Core: 2.0 / 48 kHz / 768 kbps / 16-bit / DN -4dB)
********************PLAYLIST: 00005.MPLS********************
Total   Video
Title                                                           Codec   Length  Movie Size      Disc Size       Bitrate Bitrate Main Audio Track                          Secondary Audio Track
-----                                                           ------  ------- --------------  --------------  ------- ------- ------------------                        ---------------------
00005.MPLS                                                      AVC     0:00:30 423 936         21 385 988 421  0,11    0,01
DISC INFO:
Disc Title:     Deep Purple  ...To The Rising Sun (In Tokyo) Blu-ray
Disc Size:      21 385 988 421 bytes
Protection:     AACS
BD-Java:        No
BDInfo:         0.5.8
PLAYLIST REPORT:
Name:                   00005.MPLS
Length:                 0:00:30.071 (h:m:s.ms)
Size:                   423 936 bytes
Total Bitrate:          0,11 Mbps
VIDEO:
Codec                   Bitrate             Description
-----                   -------             -----------
MPEG-4 AVC Video        9 kbps              1080p / 23,976 fps / 16:9 / High Profile 4.0
FILES:
Name            Time In         Length          Size            Total Bitrate
----            -------         ------          ----            -------------
00005.M2TS      0:00:00.000     0:00:30.071     423 936         57
CHAPTERS:
Number          Time In         Length          Avg Video Rate  Max 1-Sec Rate  Max 1-Sec Time  Max 5-Sec Rate  Max 5-Sec Time  Max 10Sec Rate  Max 10Sec Time  Avg Frame Size  Max Frame Size  Max Frame Time
------          -------         ------          --------------  --------------  --------------  --------------  --------------  --------------  --------------  --------------  --------------  --------------
1               0:00:00.000     0:00:30.071     18 kbps         0 kbps          00:00:00.000    0 kbps          00:00:00.000    0 kbps          00:00:00.000    34 445 bytes    34 447 bytes    00:00:30.030
STREAM DIAGNOSTICS:
File            PID             Type            Codec           Language                Seconds                 Bitrate                 Bytes           Packets
----            ---             ----            -----           --------                --------------          --------------          -------------   -----
00005.M2TS      4113 (0x1011)   0x1B            AVC                                     0                       0                       68 889          376
QUICK SUMMARY:
Disc Title: Deep Purple ...To The Rising Sun (In Tokyo) Blu-rayDisc Size: 21 385 988 421 bytesProtection: AACSBD-Java: NoPlaylist: 00005.MPLSSize: 423 936 bytesLength: 0:00:30.071Total Bitrate: 0,11 MbpsVideo: MPEG-4 AVC Video / 9 kbps / 1080p / 23,976 fps / 16:9 / High Profile 4.0
********************PLAYLIST: 01005.MPLS********************
Total   Video
Title                                                           Codec   Length  Movie Size      Disc Size       Bitrate Bitrate Main Audio Track                          Secondary Audio Track
-----                                                           ------  ------- --------------  --------------  ------- ------- ------------------                        ---------------------
01005.MPLS                                                      AVC     0:00:30 423 936         21 385 988 421  0,11    0,01
DISC INFO:
Disc Title:     Deep Purple  ...To The Rising Sun (In Tokyo) Blu-ray
Disc Size:      21 385 988 421 bytes
Protection:     AACS
BD-Java:        No
BDInfo:         0.5.8
PLAYLIST REPORT:
Name:                   01005.MPLS
Length:                 0:00:30.071 (h:m:s.ms)
Size:                   423 936 bytes
Total Bitrate:          0,11 Mbps
VIDEO:
Codec                   Bitrate             Description
-----                   -------             -----------
MPEG-4 AVC Video        9 kbps              1080p / 23,976 fps / 16:9 / High Profile 4.0
FILES:
Name            Time In         Length          Size            Total Bitrate
----            -------         ------          ----            -------------
00005.M2TS      0:00:00.000     0:00:30.071     423 936         57
CHAPTERS:
Number          Time In         Length          Avg Video Rate  Max 1-Sec Rate  Max 1-Sec Time  Max 5-Sec Rate  Max 5-Sec Time  Max 10Sec Rate  Max 10Sec Time  Avg Frame Size  Max Frame Size  Max Frame Time
------          -------         ------          --------------  --------------  --------------  --------------  --------------  --------------  --------------  --------------  --------------  --------------
1               0:00:00.000     0:00:30.071     18 kbps         0 kbps          00:00:00.000    0 kbps          00:00:00.000    0 kbps          00:00:00.000    34 445 bytes    34 447 bytes    00:00:30.030
STREAM DIAGNOSTICS:
File            PID             Type            Codec           Language                Seconds                 Bitrate                 Bytes           Packets
----            ---             ----            -----           --------                --------------          --------------          -------------   -----
00005.M2TS      4113 (0x1011)   0x1B            AVC                                     0                       0                       68 889          376
QUICK SUMMARY:
Disc Title: Deep Purple ...To The Rising Sun (In Tokyo) Blu-rayDisc Size: 21 385 988 421 bytesProtection: AACSBD-Java: NoPlaylist: 01005.MPLSSize: 423 936 bytesLength: 0:00:30.071Total Bitrate: 0,11 MbpsVideo: MPEG-4 AVC Video / 9 kbps / 1080p / 23,976 fps / 16:9 / High Profile 4.0
[Профиль] [ЛС]
Показать сообщения:    

Текущее время: Сегодня 14:29

Часовой пояс: GMT



Вы не можете начинать темы
Вы не можете отвечать на сообщения
Вы не можете редактировать свои сообщения
Вы не можете удалять свои сообщения
Вы не можете голосовать в опросах
Вы не можете прикреплять файлы к сообщениям
Вы не можете скачивать файлы