Deep Purple - Stormbringer (1974) remastered, 35th Anniversary Edition /2009, EMI/ [APE|Lossless]<Hard Rock>

 
Автор Сообщение

sergej644 ®

Пол:

Стаж: 4 года 11 месяцев

Сообщений: 6045

Откуда: Soviet Union



Награды: Нет

Торрент-статистика

Создавать темы 16-Дек-2014 21:46

[Цитировать]

-Deep Purple - Stormbringer + Bonus 35th Anniversary Edition (1974) remastered 2009--Год: 1974 / 2009
Жанр: Hard Rock
Продолжительность: 00:59:52
Страна: Страна: Russia
Лейбл: EMI/Purple Records
Каталожный №: 50999 2 64645 2 7/TPSX 3508
Кодек: APE (image+.cue+.log)
Битрейт: Lossless
Сканы: комплект
Реальные значения DR: DR10
Автор рипа: digital2015-Треклист:
01. Stormbringer
02. Love Don't Mean A Thing
03. Holy Man
04. Hold On
05. Lady Double Dealer
06. You Can't Do It Right
07. High Ball Shooter
08. The Gypsy
09. Soldier Of Fortune

Продолжение трэклиста (bonus&#41;&#58;

10. Holy Man (remix)
11. You Can't Do It Right (remix)
12. Love Don't Mean A Thing (renix)
13. Hold On (remix)
14. High Ball Shooter (instrumental)

Companies etc &amp; Credits and Notes&#58;


Companies etc
Phonographic Copyright (p) – EMI Records Ltd.
Copyright (c) – Deep Purple (Overseas) Ltd.
Recorded At – Musicland Studios
Mixed At – Record Plant, Los Angeles
Mixed At – Abbey Road Studios
Credits
Bass – Glenn Hughes
Drums – Ian Paice
Engineer – Gary Ladinsky (tracks: CD.1 to CD.9, DVD.1 to DVD.9), Gary Webb (2) (tracks: CD.1 to CD.9, DVD.1 to DVD.9)
Keyboards – Jon Lord
Lead Guitar – Ritchie Blackmore
Mastered By [Digital Mastering], Remastered By – Peter Mew
Mixed By – Guy Massey (tracks: CD.14), Ian Paice (tracks: CD.1 to CD.9, DVD.1 to DVD.9), Martin Birch (tracks: CD.1 to CD.9, DVD.1 to DVD.9)
Mixed By [Remix Assistant] – Peter Mew (tracks: CD.10 to CD.13)
Mixed By [Remix] – Glenn Hughes (tracks: CD.10 to CD.13)
Producer [Original Album] – Deep Purple (tracks: CD.1 to CD.9, DVD.1 to DVD.9), Martin Birch (tracks: CD.1 to CD.9, DVD.1 to DVD.9)
Recorded By [Assistant] – Hans* (tracks: CD.1 to CD.9, DVD.1 to DVD.9), Mack (2) (tracks: CD.1 to CD.9, DVD.1 to DVD.9)
Recorded By [Recording Engineer] – Martin Birch (tracks: CD.1 to CD.9, DVD.1 to DVD.9)
Vocals – David Coverdale (tracks: CD.1, CD.2, CD.4 to CD.9, CD.11 to CD.13, DVD.1, DVD.2, DVD.4 to DVD.9), Glenn Hughes (tracks: CD.1 to CD.8, CD.10 to CD.13, DVD.1 to DVD.8)
Notes
35th Anniversary Edition.
Recorded at Musicland, Munich Aug. 1974.
Mixed at The Record Plant Sept. 1974.
CD bonus tracks mixed at Abbey Road Studios, London, November 3, 2006.
CD cat#: 5099 264646 2 6
DVD cat#: 5099 264645 9 6
24 page extensive illustrated CD booklet.
Original LP released in November 1974 in the UK as Purple TPS 3508
and in the US as Warner Brothers PR 2832.
Quad LP released in 1975 in the US as Warner Brothers PR4 2832.

Отчёт ЕАС&#58;

Exact Audio Copy V1.0 beta 3 from 29. August 2011
EAC extraction logfile from 15. December 2014, 17:40
Deep Purple / Stormbringer
Used drive  : TSSTcorpCDDVDW SH-S223C   Adapter: 3  ID: 0
Read mode               : Secure
Utilize accurate stream : Yes
Defeat audio cache      : Yes
Make use of C2 pointers : No
Read offset correction                      : 697
Overread into Lead-In and Lead-Out          : No
Fill up missing offset samples with silence : Yes
Delete leading and trailing silent blocks   : No
Null samples used in CRC calculations       : Yes
Used interface                              : Native Win32 interface for Win NT & 2000
Used output format : Internal WAV Routines
Sample format      : 44.100 Hz; 16 Bit; Stereo
TOC of the extracted CD
     Track |   Start  |  Length  | Start sector | End sector
    ---------------------------------------------------------
        1  |  0:00.00 |  4:06.58 |         0    |    18507
        2  |  4:06.58 |  4:24.55 |     18508    |    38362
        3  |  8:31.38 |  4:33.68 |     38363    |    58905
        4  | 13:05.31 |  5:06.51 |     58906    |    81906
        5  | 18:12.07 |  3:21.50 |     81907    |    97031
        6  | 21:33.57 |  3:25.73 |     97032    |   112479
        7  | 24:59.55 |  4:28.15 |    112480    |   132594
        8  | 29:27.70 |  4:05.30 |    132595    |   150999
        9  | 33:33.25 |  3:24.66 |    151000    |   166365
       10  | 36:58.16 |  4:33.01 |    166366    |   186841
       11  | 41:31.17 |  3:28.01 |    186842    |   202442
       12  | 44:59.18 |  5:08.34 |    202443    |   225576
       13  | 50:07.52 |  5:13.43 |    225577    |   249094
       14  | 55:21.20 |  4:30.20 |    249095    |   269364
Range status and errors
Selected range
     Filename E:\Deep Purple - Stormbringer (Original Album Remastered, recorded 1974) [CD] - 2009 (lossless)\01. Deep Purple - Stormbringer (Original Album Remastered, recorded 1974) - 2009.wav
     Peak level 100.0 %
     Extraction speed 3.3 X
     Range quality 100.0 %
     Test CRC FD69D865
     Copy CRC FD69D865
     Copy OK
No errors occurred
AccurateRip summary
Track  1  accurately ripped (confidence 21)  [3CB681EF]  (AR v2)
Track  2  accurately ripped (confidence 21)  [BF3BF7DA]  (AR v2)
Track  3  accurately ripped (confidence 21)  [DACCB417]  (AR v2)
Track  4  accurately ripped (confidence 21)  [4993092F]  (AR v2)
Track  5  accurately ripped (confidence 21)  [F9A96B0D]  (AR v2)
Track  6  accurately ripped (confidence 21)  [D9E2B377]  (AR v2)
Track  7  accurately ripped (confidence 21)  [D1006C54]  (AR v2)
Track  8  accurately ripped (confidence 21)  [67879A3E]  (AR v2)
Track  9  accurately ripped (confidence 21)  [1F734B3A]  (AR v2)
Track 10  accurately ripped (confidence 21)  [62003718]  (AR v2)
Track 11  accurately ripped (confidence 22)  [8DBBCEB2]  (AR v2)
Track 12  accurately ripped (confidence 22)  [EFB663A8]  (AR v2)
Track 13  accurately ripped (confidence 22)  [30D1F871]  (AR v2)
Track 14  accurately ripped (confidence 22)  [6B342F4F]  (AR v2)
All tracks accurately ripped
End of status report
---- CUETools DB Plugin V2.1.3
[CTDB TOCID: e_aHGoZapoycpnw9KtqszDkcz10-] found, Submit result: already submitted
[b7b61b7a] (98/99) Accurately ripped
[e37b3083] (01/99) No match
==== Log checksum A47E184DFB73B219EFB002CCC335887DB483641AC2F676900FB08E71E1096AEB ====

Отчёт auCDtect Task manager&#58;

-----------------------
DON'T MODIFY THIS FILE
-----------------------
PERFORMER: auCDtect Task Manager, ver. 1.6.0 RC1 build 1.6.0.1
Copyright (c) 2008-2010 y-soft. All rights reserved
http://y-soft.org
ANALYZER: auCDtect: CD records authenticity detector, version 0.8.2
Copyright (c) 2004 Oleg Berngardt. All rights reserved.
Copyright (c) 2004 Alexander Djourik. All rights reserved.
FILE: 01. Deep Purple - Stormbringer (Original Album Remastered, recorded 1974) - 2009.ape
  Size: 416606404 Hash: 0A1546F4FDC180C8E5CD14B713EBDA33 Accuracy: -m0
  Conclusion: CDDA 99%
  Signature: 7AD7C87B6808B9B6F64D3D732DA4F141FD298B26

Содержание индексной карты (.cue&#41;&#58;

REM GENRE "Hard Rock"
REM DATE 1974
REM DISCID AD0E070E
REM COMMENT "ExactAudioCopy v1.0b3"
PERFORMER "Deep Purple"
TITLE "Stormbringer"
FILE "01. Deep Purple - Stormbringer (Original Album Remastered, recorded 1974) - 2009.ape" WAVE
  TRACK 01 AUDIO
    TITLE "Stormbringer"
    PERFORMER "Deep Purple"
    INDEX 01 00:00:00
  TRACK 02 AUDIO
    TITLE "Love Don't Mean A Thing"
    PERFORMER "Deep Purple"
    INDEX 00 04:06:42
    INDEX 01 04:06:58
  TRACK 03 AUDIO
    TITLE "Holy Man"
    PERFORMER "Deep Purple"
    INDEX 00 08:31:18
    INDEX 01 08:31:38
  TRACK 04 AUDIO
    TITLE "Hold On"
    PERFORMER "Deep Purple"
    INDEX 00 13:04:62
    INDEX 01 13:05:31
  TRACK 05 AUDIO
    TITLE "Lady Double Dealer"
    PERFORMER "Deep Purple"
    INDEX 00 18:11:50
    INDEX 01 18:12:07
  TRACK 06 AUDIO
    TITLE "You Can't Do It Right"
    PERFORMER "Deep Purple"
    INDEX 00 21:33:55
    INDEX 01 21:33:57
  TRACK 07 AUDIO
    TITLE "High Ball Shooter"
    PERFORMER "Deep Purple"
    INDEX 00 24:59:43
    INDEX 01 24:59:55
  TRACK 08 AUDIO
    TITLE "The Gypsy"
    PERFORMER "Deep Purple"
    INDEX 00 29:27:69
    INDEX 01 29:27:70
  TRACK 09 AUDIO
    TITLE "Soldier Of Fortune"
    PERFORMER "Deep Purple"
    INDEX 00 33:31:55
    INDEX 01 33:33:25
  TRACK 10 AUDIO
    TITLE "Holy Man (Glenn Hughes Remix)"
    PERFORMER "Deep Purple"
    INDEX 00 36:48:29
    INDEX 01 36:58:16
  TRACK 11 AUDIO
    TITLE "You Can't Do It Right (Glenn Hughes Remix)"
    PERFORMER "Deep Purple"
    INDEX 00 41:30:03
    INDEX 01 41:31:17
  TRACK 12 AUDIO
    TITLE "Love Don't Mean A Thing (Glenn Hughes Remix)"
    PERFORMER "Deep Purple"
    INDEX 00 44:57:17
    INDEX 01 44:59:18
  TRACK 13 AUDIO
    TITLE "Hold On (Glenn Hughes Remix)"
    PERFORMER "Deep Purple"
    INDEX 00 50:05:07
    INDEX 01 50:07:52
  TRACK 14 AUDIO
    TITLE "High Ball Shooter (instrumental)"
    PERFORMER "Deep Purple"
    INDEX 00 55:19:57
    INDEX 01 55:21:20

DR

foobar2000 1.1.3 / Замер динамического диапазона (DR) 1.1.1
Дата отчёта:    2014-12-15 20:30:19
--------------------------------------------------------------------------------
Анализ:   Deep Purple / Stormbringer
--------------------------------------------------------------------------------
DR         Пики         RMS           Продолжительность трека
--------------------------------------------------------------------------------
DR10      -0.07 дБ   -11.30 дБ      4:07 ?-Stormbringer
DR11      -0.08 дБ   -12.85 дБ      4:25 ?-Love Don't Mean A Thing
DR11      -0.08 дБ   -13.95 дБ      4:34 ?-Holy Man
DR11       0.00 дБ   -12.69 дБ      5:07 ?-Hold On
DR10      -0.36 дБ   -12.52 дБ      3:22 ?-Lady Double Dealer
DR11      -0.32 дБ   -12.74 дБ      3:26 ?-You Can't Do It Right
DR10      -0.56 дБ   -12.60 дБ      4:28 ?-High Ball Shooter
DR11      -0.19 дБ   -13.43 дБ      4:05 ?-The Gypsy
DR12      -0.51 дБ   -15.06 дБ      3:25 ?-Soldier Of Fortune
DR8       -2.08 дБ   -12.26 дБ      4:33 ?-Holy Man (Glenn Hughes Remix)
DR8       -2.01 дБ   -12.02 дБ      3:28 ?-You Can't Do It Right (Glenn Hughes Remix)
DR7       -2.01 дБ   -11.80 дБ      5:08 ?-Love Don't Mean A Thing (Glenn Hughes Remix)
DR7       -2.08 дБ   -11.27 дБ      5:14 ?-Hold On (Glenn Hughes Remix)
DR8       -1.17 дБ   -10.44 дБ      4:30 ?-High Ball Shooter (instrumental)
--------------------------------------------------------------------------------
Количество треков:  14
Реальные значения DR:  DR10
Частота:      44100 Гц
Каналов:      2
Разрядность:     16
Битрейт:      928 кбит/с
Кодек:      Monkey's Audio
================================================================================

Спектрограмма&#58;

--
[Профиль] [ЛС]
Показать сообщения:    

Текущее время: Сегодня 20:25

Часовой пояс: GMT



Вы не можете начинать темы
Вы не можете отвечать на сообщения
Вы не можете редактировать свои сообщения
Вы не можете удалять свои сообщения
Вы не можете голосовать в опросах
Вы не можете прикреплять файлы к сообщениям
Вы не можете скачивать файлы