(Hard Rock, Classic Rock) Deep Purple MK1 - K2HD Mastering Collection (3CD, Japan 2014) - 1968, 1969 [FLAC, image+.cue, lossless]

 
Автор Сообщение

sergej644 ®

Пол:

Стаж: 4 года 11 месяцев

Сообщений: 6046

Откуда: Soviet Union



Награды: Нет

Торрент-статистика

Создавать темы 16-Июн-2015 20:47

[Цитировать]

-Deep Purple MK1 / K2HD Mastering Collection (3CD, Japan 2014)-- Год издания: 1968, 1969
Страна: UK
Жанр: Hard Rock, Classic Rock
Продолжительность: 03:09:10-Лейбл издания: Victor (Stereo)
Страна-выпуска диска: Japan
Номер по каталогу: VICP-75126 K2HD, VICP-75021 K2HD, VICP-75128 K2HD
Формат: FLAC
Битрейт аудио: lossless
Тип рипа: image+.cue
Наличие сканов в содержимом раздачи: да
--

1968 - Shades Of Deep Purple | 01:04:11

01.And The Address (04:39)
02.Hush (04:25)
03.One More Rainy Day (03:41)
04.Prelude: a) Happiness b) I'm So Glad (07:20)
05.Mandrake Root (06:10)
06.Help (06:02)
07.Love Help Me (03:50)
08.Hey Joe (07:34)
09.Shadows (out take) (03:39)
10.Love Help Me (Instrumental Version) (03:30)
11.Help (Alternate Take) (05:24)
12.Hey Joe (BBC Radio Session) (04:06)
13.Hush (Live US TV) (03:56)

лог создания рипа

Exact Audio Copy V1.0 beta 3 from 29. August 2011
EAC extraction logfile from 3. March 2014, 20:55
Deep Purple / Shades Of Deep Purple
Used drive  : ATAPI   iHAS124   B   Adapter: 1  ID: 0
Read mode               : Secure
Utilize accurate stream : Yes
Defeat audio cache      : Yes
Make use of C2 pointers : No
Read offset correction                      : 6
Overread into Lead-In and Lead-Out          : No
Fill up missing offset samples with silence : Yes
Delete leading and trailing silent blocks   : No
Null samples used in CRC calculations       : Yes
Used interface                              : Installed external ASPI interface
Used output format              : User Defined Encoder
Selected bitrate                : 128 kBit/s
Quality                         : High
Add ID3 tag                     : Yes
Command line compressor         : C:\Program Files (x86)\Exact Audio Copy\Flac\flac.exe
Additional command line options : -V -8 %source%
TOC of the extracted CD
     Track |   Start  |  Length  | Start sector | End sector
    ---------------------------------------------------------
        1  |  0:00.00 |  4:38.70 |         0    |    20919
        2  |  4:38.70 |  4:24.72 |     20920    |    40791
        3  |  9:03.67 |  3:40.18 |     40792    |    57309
        4  | 12:44.10 |  7:19.07 |     57310    |    90241
        5  | 20:03.17 |  6:09.63 |     90242    |   117979
        6  | 26:13.05 |  6:01.30 |    117980    |   145084
        7  | 32:14.35 |  3:49.07 |    145085    |   162266
        8  | 36:03.42 |  7:33.68 |    162267    |   196309
        9  | 43:37.35 |  3:38.41 |    196310    |   212700
       10  | 47:16.01 |  3:29.64 |    212701    |   228439
       11  | 50:45.65 |  5:23.40 |    228440    |   252704
       12  | 56:09.30 |  4:05.54 |    252705    |   271133
       13  | 60:15.09 |  3:55.16 |    271134    |   288774
Range status and errors
Selected range
     Filename G:\CD\Deep Purple - Shades Of Deep Purple.wav
     Peak level 98.8 %
     Extraction speed 8.9 X
     Range quality 100.0 %
     Test CRC DD4966EC
     Copy CRC DD4966EC
     Copy OK
No errors occurred
AccurateRip summary
Track  1  accurately ripped (confidence 2)  [37A0B4FF]  (AR v2)
Track  2  accurately ripped (confidence 2)  [F494A036]  (AR v2)
Track  3  accurately ripped (confidence 2)  [BB9617BF]  (AR v2)
Track  4  accurately ripped (confidence 2)  [85A2FEA7]  (AR v2)
Track  5  accurately ripped (confidence 2)  [BC6C95B4]  (AR v2)
Track  6  accurately ripped (confidence 2)  [8F730A7A]  (AR v2)
Track  7  accurately ripped (confidence 2)  [5D2C38EF]  (AR v2)
Track  8  accurately ripped (confidence 2)  [8C110042]  (AR v2)
Track  9  accurately ripped (confidence 2)  [3CAB16F5]  (AR v2)
Track 10  accurately ripped (confidence 2)  [9A285518]  (AR v2)
Track 11  accurately ripped (confidence 2)  [F9D4226F]  (AR v2)
Track 12  accurately ripped (confidence 2)  [70456152]  (AR v2)
Track 13  accurately ripped (confidence 2)  [46A56C70]  (AR v2)
All tracks accurately ripped
End of status report
---- CUETools DB Plugin V2.1.3
[CTDB TOCID: 9zMX3es37XQGsuj3cBkyusU3MZ4-] found, Submit result: 9zMX3es37XQGsuj3cBkyusU3MZ4- has been submitted
[adfd70f8] (5/5) No match

содержание индексной карты *cue

REM GENRE "Hard Rock"
REM DATE 2014
REM DISCID BC0F0A0D
REM COMMENT http://flacmania.ru/
PERFORMER "Deep Purple"
TITLE "Shades Of Deep Purple (Japan) / flacmania.ru"
FILE "Deep Purple - Shades Of Deep Purple.flac" WAVE
  TRACK 01 AUDIO
    TITLE "And The Address"
    PERFORMER "Deep Purple"
    INDEX 01 00:00:00
  TRACK 02 AUDIO
    TITLE Hush
    PERFORMER "Deep Purple"
    INDEX 01 04:38:70
  TRACK 03 AUDIO
    TITLE "One More Rainy Day"
    PERFORMER "Deep Purple"
    INDEX 01 09:03:67
  TRACK 04 AUDIO
    TITLE "Prelude: a) Happiness b) I'm So Glad"
    PERFORMER "Deep Purple"
    INDEX 00 12:43:67
    INDEX 01 12:44:10
  TRACK 05 AUDIO
    TITLE "Mandrake Root"
    PERFORMER "Deep Purple"
    INDEX 01 20:03:17
  TRACK 06 AUDIO
    TITLE Help
    PERFORMER "Deep Purple"
    INDEX 00 26:13:00
    INDEX 01 26:13:05
  TRACK 07 AUDIO
    TITLE "Love Help Me"
    PERFORMER "Deep Purple"
    INDEX 00 32:13:62
    INDEX 01 32:14:35
  TRACK 08 AUDIO
    TITLE "Hey Joe"
    PERFORMER "Deep Purple"
    INDEX 00 36:03:15
    INDEX 01 36:03:42
  TRACK 09 AUDIO
    TITLE "Shadows (out take)"
    PERFORMER "Deep Purple"
    INDEX 00 43:30:57
    INDEX 01 43:37:35
  TRACK 10 AUDIO
    TITLE "Love Help Me (Instrumental Version)"
    PERFORMER "Deep Purple"
    INDEX 00 47:13:17
    INDEX 01 47:16:01
  TRACK 11 AUDIO
    TITLE "Help (Alternate Take)"
    PERFORMER "Deep Purple"
    INDEX 00 50:44:55
    INDEX 01 50:45:65
  TRACK 12 AUDIO
    TITLE "Hey Joe (BBC Radio Session)"
    PERFORMER "Deep Purple"
    INDEX 00 56:06:52
    INDEX 01 56:09:30
  TRACK 13 AUDIO
    TITLE "Hush (Live US TV)"
    PERFORMER "Deep Purple"
    INDEX 00 60:13:22
    INDEX 01 60:15:09

Лог Audiochecker:

AUDIOCHECKER v2.0 beta (build 457) - by Dester - opdester@freemail.hu
~~~~~~~~~~~~~~~~~~~~~~~~~~~~~~~~~~
-=== НЕ РЕДАКТИРУЙТЕ ЭТОТ ФАЙЛ! ===-
Путь: ...\Deep Purple - Shades Of Deep Purple (1968) [Japan Remastered 2014]
1 -=- Deep Purple - Shades Of Deep Purple.flac -=- CDDA (100%)
232287988

1968 - The Book Of Taliesyn | 01:05:27

01.Listen, Learn, Read On (04:06)
02.Wring That Neck (05:14)
03.Kentucky Woman (04:45)
04.a) Exposition b) We Can Work It Out (07:08)
05.The Shield (06:06)
06.Anthem (06:33)
07.River Deep-Mountain High (10:13)
08.Oh No No No (Studio Out Take) (04:26)
09.It's All Over (BBC Top Gear Session) (04:15)
10.Hey Bop A Re Bop (BBC Top Gear Session) (03:32)
11.Wring That Neck (BBC Top Gear Session) (04:43)
12.Playground (Remixed Instrumental Studio Out Take) (04:32)

лог создания рипа

Exact Audio Copy V1.0 beta 3 from 29. August 2011
EAC extraction logfile from 5. March 2014, 6:01
Deep Purple / The Book Of Taliesyn
Used drive  : ATAPI   iHAS124   B   Adapter: 1  ID: 0
Read mode               : Secure
Utilize accurate stream : Yes
Defeat audio cache      : Yes
Make use of C2 pointers : No
Read offset correction                      : 6
Overread into Lead-In and Lead-Out          : No
Fill up missing offset samples with silence : Yes
Delete leading and trailing silent blocks   : No
Null samples used in CRC calculations       : Yes
Used interface                              : Installed external ASPI interface
Used output format              : User Defined Encoder
Selected bitrate                : 128 kBit/s
Quality                         : High
Add ID3 tag                     : Yes
Command line compressor         : C:\Program Files (x86)\Exact Audio Copy\Flac\flac.exe
Additional command line options : -V -8 %source%
TOC of the extracted CD
     Track |   Start  |  Length  | Start sector | End sector
    ---------------------------------------------------------
        1  |  0:00.00 |  4:05.26 |         0    |    18400
        2  |  4:05.26 |  5:13.52 |     18401    |    41927
        3  |  9:19.03 |  4:44.39 |     41928    |    63266
        4  | 14:03.42 |  7:07.59 |     63267    |    95350
        5  | 21:11.26 |  6:05.71 |     95351    |   122796
        6  | 27:17.22 |  6:32.34 |    122797    |   152230
        7  | 33:49.56 | 10:12.18 |    152231    |   198148
        8  | 44:01.74 |  4:25.19 |    198149    |   218042
        9  | 48:27.18 |  4:14.15 |    218043    |   237107
       10  | 52:41.33 |  3:31.54 |    237108    |   252986
       11  | 56:13.12 |  4:42.30 |    252987    |   274166
       12  | 60:55.42 |  4:31.20 |    274167    |   294511
Range status and errors
Selected range
     Filename G:\CD\Deep Purple - The Book Of Taliesyn.wav
     Peak level 98.8 %
     Extraction speed 8.9 X
     Range quality 100.0 %
     Test CRC C8FB26C2
     Copy CRC C8FB26C2
     Copy OK
No errors occurred
AccurateRip summary
Track  1  accurately ripped (confidence 2)  [D31370BF]  (AR v2)
Track  2  accurately ripped (confidence 2)  [AFB4D5FD]  (AR v2)
Track  3  accurately ripped (confidence 2)  [3A25DA65]  (AR v2)
Track  4  accurately ripped (confidence 2)  [586A207B]  (AR v2)
Track  5  accurately ripped (confidence 2)  [3FBF558C]  (AR v2)
Track  6  accurately ripped (confidence 2)  [521953CB]  (AR v2)
Track  7  accurately ripped (confidence 2)  [D9463EF5]  (AR v2)
Track  8  accurately ripped (confidence 2)  [9822877A]  (AR v2)
Track  9  accurately ripped (confidence 2)  [A74BF2FD]  (AR v2)
Track 10  accurately ripped (confidence 2)  [D18D7D3D]  (AR v2)
Track 11  accurately ripped (confidence 2)  [8A2D9FF9]  (AR v2)
Track 12  accurately ripped (confidence 2)  [D97B5268]  (AR v2)
All tracks accurately ripped
End of status report
---- CUETools DB Plugin V2.1.3
[CTDB TOCID: CABL8DWvHfituCgljTV33XTuzts-] found, Submit result: CABL8DWvHfituCgljTV33XTuzts- has been uploaded
[42ce63fc] (1/1) No match

содержание индексной карты *cue

REM GENRE "Hard Rock"
REM DATE 1968
REM DISCID A90F560C
REM COMMENT http://flacmania.ru/
PERFORMER "Deep Purple"
TITLE "The Book Of Taliesyn"
FILE "Deep Purple - The Book Of Taliesyn.flac" WAVE
  TRACK 01 AUDIO
    TITLE "Listen, Learn, Read On"
    PERFORMER "Deep Purple"
    INDEX 01 00:00:00
  TRACK 02 AUDIO
    TITLE "Wring That Neck"
    PERFORMER "Deep Purple"
    INDEX 00 04:01:64
    INDEX 01 04:05:26
  TRACK 03 AUDIO
    TITLE "Kentucky Woman"
    PERFORMER "Deep Purple"
    INDEX 00 09:17:19
    INDEX 01 09:19:03
  TRACK 04 AUDIO
    TITLE "a) Exposition b) We Can Work It Out"
    PERFORMER "Deep Purple"
    INDEX 00 14:00:69
    INDEX 01 14:03:42
  TRACK 05 AUDIO
    TITLE "The Shield"
    PERFORMER "Deep Purple"
    INDEX 00 21:09:08
    INDEX 01 21:11:26
  TRACK 06 AUDIO
    TITLE Anthem
    PERFORMER "Deep Purple"
    INDEX 00 27:14:37
    INDEX 01 27:17:22
  TRACK 07 AUDIO
    TITLE "River Deep-Mountain High"
    PERFORMER "Deep Purple"
    INDEX 00 33:46:43
    INDEX 01 33:49:56
  TRACK 08 AUDIO
    TITLE "Oh No No No (Studio Out Take)"
    PERFORMER "Deep Purple"
    INDEX 00 43:57:73
    INDEX 01 44:01:74
  TRACK 09 AUDIO
    TITLE "It's All Over (BBC Top Gear Session)"
    PERFORMER "Deep Purple"
    INDEX 00 48:25:16
    INDEX 01 48:27:18
  TRACK 10 AUDIO
    TITLE "Hey Bop A Re Bop (BBC Top Gear Session)"
    PERFORMER "Deep Purple"
    INDEX 00 52:39:71
    INDEX 01 52:41:33
  TRACK 11 AUDIO
    TITLE "Wring That Neck (BBC Top Gear Session)"
    PERFORMER "Deep Purple"
    INDEX 00 56:11:57
    INDEX 01 56:13:12
  TRACK 12 AUDIO
    TITLE "Playground (Remixed Instrumental Studio Out Take)"
    PERFORMER "Deep Purple"
    INDEX 00 60:53:48
    INDEX 01 60:55:42

Лог Audiochecker:

AUDIOCHECKER v2.0 beta (build 457) - by Dester - opdester@freemail.hu
~~~~~~~~~~~~~~~~~~~~~~~~~~~~~~~~~~
-=== НЕ РЕДАКТИРУЙТЕ ЭТОТ ФАЙЛ! ===-
Путь: ...\Deep Purple - The Book Of Taliesyn (1968) [Japan Edition 2014]
1 -=- Deep Purple - The Book Of Taliesyn.flac -=- CDDA (99%)
171836852

1969 - Deep Purple | 00:59:33

01.Chasing Shadows (05:36)
02.Blind (05:27)
03.Lalena (05:06)
04.Fault Line (01:46)
05.The Painter (03:52)
06.Why Didn't Rosemary? (05:05)
07.Bird Has Flown (05:36)
08.April (12:11)
09.Bird Has Flown (alternative A-side version) (02:55)
10.Emmaretta (studio B-side) (03:01)
11.Emmaretta (BBC Top Gear Session 14.01.1969) (03:10)
12.Lalena (BBC radio session 24.06.1969) (03:34)
13.The Painter (BBC radio session 24.06.1969) (02:19)

лог создания рипа

Exact Audio Copy V1.0 beta 3 from 29. August 2011
EAC extraction logfile from 5. March 2014, 0:02
Deep Purple / Deep Purple
Used drive  : ATAPI   iHAS124   B   Adapter: 1  ID: 0
Read mode               : Secure
Utilize accurate stream : Yes
Defeat audio cache      : Yes
Make use of C2 pointers : No
Read offset correction                      : 6
Overread into Lead-In and Lead-Out          : No
Fill up missing offset samples with silence : Yes
Delete leading and trailing silent blocks   : No
Null samples used in CRC calculations       : Yes
Used interface                              : Installed external ASPI interface
Used output format              : User Defined Encoder
Selected bitrate                : 128 kBit/s
Quality                         : High
Add ID3 tag                     : Yes
Command line compressor         : C:\Program Files (x86)\Exact Audio Copy\Flac\flac.exe
Additional command line options : -V -8 %source%
TOC of the extracted CD
     Track |   Start  |  Length  | Start sector | End sector
    ---------------------------------------------------------
        1  |  0:00.00 |  5:35.03 |         0    |    25127
        2  |  5:35.03 |  5:26.26 |     25128    |    49603
        3  | 11:01.29 |  5:05.59 |     49604    |    72537
        4  | 16:07.13 |  1:46.00 |     72538    |    80487
        5  | 17:53.13 |  3:51.61 |     80488    |    97873
        6  | 21:44.74 |  5:04.23 |     97874    |   120696
        7  | 26:49.22 |  5:35.62 |    120697    |   145883
        8  | 32:25.09 | 12:10.18 |    145884    |   200651
        9  | 44:35.27 |  2:54.28 |    200652    |   213729
       10  | 47:29.55 |  3:00.70 |    213730    |   227299
       11  | 50:30.50 |  3:09.59 |    227300    |   241533
       12  | 53:40.34 |  3:33.38 |    241534    |   257546
       13  | 57:13.72 |  2:18.58 |    257547    |   267954
Range status and errors
Selected range
     Filename G:\CD\Deep Purple - Deep Purple.wav
     Peak level 98.8 %
     Extraction speed 8.5 X
     Range quality 100.0 %
     Test CRC 77D30BAD
     Copy CRC 77D30BAD
     Copy OK
No errors occurred
AccurateRip summary
Track  1  accurately ripped (confidence 2)  [9B790B24]  (AR v2)
Track  2  accurately ripped (confidence 2)  [7D557573]  (AR v2)
Track  3  accurately ripped (confidence 2)  [61B4D60D]  (AR v2)
Track  4  accurately ripped (confidence 2)  [8F1089C6]  (AR v2)
Track  5  accurately ripped (confidence 2)  [5A3076CF]  (AR v2)
Track  6  accurately ripped (confidence 2)  [9A295628]  (AR v2)
Track  7  accurately ripped (confidence 2)  [0E072520]  (AR v2)
Track  8  accurately ripped (confidence 2)  [E2B94426]  (AR v2)
Track  9  accurately ripped (confidence 2)  [83B88FAB]  (AR v2)
Track 10  accurately ripped (confidence 2)  [35046A0D]  (AR v2)
Track 11  accurately ripped (confidence 2)  [1DD6B190]  (AR v2)
Track 12  accurately ripped (confidence 2)  [A59A0D4E]  (AR v2)
Track 13  accurately ripped (confidence 2)  [3E6782B8]  (AR v2)
All tracks accurately ripped
End of status report
---- CUETools DB Plugin V2.1.3
[CTDB TOCID: TrYNCs9LjGyr3.v0kcxyHlah6PI-] disk not present in database, Submit result: TrYNCs9LjGyr3.v0kcxyHlah6PI- has been uploaded

содержание индексной карты *cue

REM GENRE "Hard Rock"
REM DATE 1969
REM DISCID B10DF40D
REM COMMENT http://flacmania.ru/
PERFORMER "Deep Purple"
TITLE "Deep Purple"
FILE "Deep Purple - Deep Purple.flac" WAVE
  TRACK 01 AUDIO
    TITLE "Chasing Shadows"
    PERFORMER "Deep Purple"
    INDEX 01 00:00:00
  TRACK 02 AUDIO
    TITLE Blind
    PERFORMER "Deep Purple"
    INDEX 00 05:31:48
    INDEX 01 05:35:03
  TRACK 03 AUDIO
    TITLE Lalena
    PERFORMER "Deep Purple"
    INDEX 00 10:58:44
    INDEX 01 11:01:29
  TRACK 04 AUDIO
    TITLE "Fault Line"
    PERFORMER "Deep Purple"
    INDEX 00 16:04:03
    INDEX 01 16:07:13
  TRACK 05 AUDIO
    TITLE "The Painter"
    PERFORMER "Deep Purple"
    INDEX 01 17:53:13
  TRACK 06 AUDIO
    TITLE "Why Didn't Rosemary?"
    PERFORMER "Deep Purple"
    INDEX 00 21:42:17
    INDEX 01 21:44:74
  TRACK 07 AUDIO
    TITLE "Bird Has Flown"
    PERFORMER "Deep Purple"
    INDEX 00 26:46:64
    INDEX 01 26:49:22
  TRACK 08 AUDIO
    TITLE April
    PERFORMER "Deep Purple"
    INDEX 00 32:22:43
    INDEX 01 32:25:09
  TRACK 09 AUDIO
    TITLE "Bird Has Flown (alternative A-side version)"
    PERFORMER "Deep Purple"
    INDEX 00 44:30:36
    INDEX 01 44:35:27
  TRACK 10 AUDIO
    TITLE "Emmaretta (studio B-side)"
    PERFORMER "Deep Purple"
    INDEX 00 47:26:64
    INDEX 01 47:29:55
  TRACK 11 AUDIO
    TITLE "Emmaretta (BBC Top Gear Session 14.01.1969)"
    PERFORMER "Deep Purple"
    INDEX 00 50:28:43
    INDEX 01 50:30:50
  TRACK 12 AUDIO
    TITLE "Lalena (BBC radio session 24.06.1969)"
    PERFORMER "Deep Purple"
    INDEX 00 53:38:00
    INDEX 01 53:40:34
  TRACK 13 AUDIO
    TITLE "The Painter (BBC radio session 24.06.1969)"
    PERFORMER "Deep Purple"
    INDEX 00 57:11:49
    INDEX 01 57:13:72

Лог Audiochecker:

AUDIOCHECKER v2.0 beta (build 457) - by Dester - opdester@freemail.hu
~~~~~~~~~~~~~~~~~~~~~~~~~~~~~~~~~~
-=== НЕ РЕДАКТИРУЙТЕ ЭТОТ ФАЙЛ! ===-
Путь: ...\Deep Purple - Deep Purple (1969) [Remastered 2014]
1 -=- Deep Purple - Deep Purple.flac -=- CDDA (99%)
131838292
--Не забываем говорить
[Профиль] [ЛС]
Показать сообщения:    

Текущее время: Сегодня 01:27

Часовой пояс: GMT



Вы не можете начинать темы
Вы не можете отвечать на сообщения
Вы не можете редактировать свои сообщения
Вы не можете удалять свои сообщения
Вы не можете голосовать в опросах
Вы не можете прикреплять файлы к сообщениям
Вы не можете скачивать файлы