(Hard Rock, Classic Rock) Deep Purple - Made In Japan (24 Karat Gold Remaster 1998) - 1972 [FLAC, tracks+.cue, lossless]

 
Автор Сообщение

sergej644 ®

Пол:

Стаж: 4 года 11 месяцев

Сообщений: 6038

Откуда: Soviet Union



Награды: Нет

Торрент-статистика

Создавать темы 16-Июн-2015 17:27

[Цитировать]

-Deep Purple / Made In Japan (24 Karat Gold Remaster 1998)-- Год издания: 1972
Страна: UK
Жанр: Hard Rock, Classic Rock
Продолжительность: 01:17:29-Лейбл издания: DCC
Страна-выпуска диска: USA
Номер по каталогу: GZS - 1120
Формат: FLAC
Битрейт аудио: lossless
Тип рипа: tracks+.cue
Наличие сканов в содержимом раздачи: да
--

Трэклист

01.Highway Star (06:56)
02.Child In Time (12:33)
03.Smoke On The Water (07:35)
04.The Mule (09:58)
05.Strange Kind Of Woman (09:56)
06.Lazy (10:36)
07.Space Truckin' (19:59)
-

Лог создания рипа

EAC extraction logfile from 16. February 2006, 9:29 for CD
Deep Purple / Made In Japan - DCC
Used drive  : _NEC    DVD_RW ND-3550A   Adapter: 1  ID: 0
Read mode   : Secure with NO C2, accurate stream, disable cache
Read offset correction : 48
Overread into Lead-In and Lead-Out : No
Used output format : Internal WAV Routines
                     44.100 Hz; 16 Bit; Stereo
Other options      :
    Fill up missing offset samples with silence : Yes
    Delete leading and trailing silent blocks : No
    Native Win32 interface for Win NT & 2000
Track  1
     Filename C:\Documents and Settings\Owner\My Documents\My Music\eac to wave\01 - Highway Star.wav
     Pre-gap length  0:00:02.00
     Peak level 95.2 %
     Track quality 99.9 %
     Test CRC 856FDBB7
     Copy CRC 856FDBB7
     Copy OK
Track  2
     Filename C:\Documents and Settings\Owner\My Documents\My Music\eac to wave\02 - Child In Time.wav
     Pre-gap length  0:00:02.66
     Peak level 89.7 %
     Track quality 100.0 %
     Test CRC C8AB927C
     Copy CRC C8AB927C
     Copy OK
Track  3
     Filename C:\Documents and Settings\Owner\My Documents\My Music\eac to wave\03 - Smoke On The Water.wav
     Pre-gap length  0:00:05.02
     Peak level 99.3 %
     Track quality 100.0 %
     Test CRC D84387BB
     Copy CRC D84387BB
     Copy OK
Track  4
     Filename C:\Documents and Settings\Owner\My Documents\My Music\eac to wave\04 - The Mule.wav
     Pre-gap length  0:00:00.93
     Peak level 96.3 %
     Track quality 100.0 %
     Test CRC 24313E18
     Copy CRC 24313E18
     Copy OK
Track  5
     Filename C:\Documents and Settings\Owner\My Documents\My Music\eac to wave\05 - Strange Kind Of Woman.wav
     Pre-gap length  0:00:06.13
     Peak level 82.9 %
     Track quality 100.0 %
     Test CRC 584FE10F
     Copy CRC 584FE10F
     Copy OK
Track  6
     Filename C:\Documents and Settings\Owner\My Documents\My Music\eac to wave\06 - Lazy.wav
     Peak level 89.7 %
     Track quality 100.0 %
     Test CRC 516AD919
     Copy CRC 516AD919
     Copy OK
Track  7
     Filename C:\Documents and Settings\Owner\My Documents\My Music\eac to wave\07 - Space Truckin'.wav
     Pre-gap length  0:00:01.13
     Peak level 94.6 %
     Track quality 100.0 %
     Test CRC BE20319F
     Copy CRC BE20319F
     Copy OK
No errors occured
End of status report

Индексная карта (non-compilant .cue)

REM GENRE "Hard Rock"
REM DATE 1973
REM DISCID 50122807
REM COMMENT "ExactAudioCopy v0.95b3"
PERFORMER "Deep Purple"
TITLE "Made In Japan - DCC"
FILE "01 - Highway Star.wav" WAVE
  TRACK 01 AUDIO
    TITLE "Highway Star"
    PERFORMER "Deep Purple"
    INDEX 01 00:00:00
  TRACK 02 AUDIO
    TITLE "Child In Time"
    PERFORMER "Deep Purple"
    INDEX 00 06:52:55
FILE "02 - Child In Time.wav" WAVE
    INDEX 01 00:00:00
  TRACK 03 AUDIO
    TITLE "Smoke On The Water"
    PERFORMER "Deep Purple"
    INDEX 00 12:27:20
FILE "03 - Smoke On The Water.wav" WAVE
    INDEX 01 00:00:00
  TRACK 04 AUDIO
    TITLE "The Mule"
    PERFORMER "Deep Purple"
    INDEX 00 07:33:13
FILE "04 - The Mule.wav" WAVE
    INDEX 01 00:00:00
  TRACK 05 AUDIO
    TITLE "Strange Kind Of Woman"
    PERFORMER "Deep Purple"
    INDEX 00 09:51:05
FILE "05 - Strange Kind Of Woman.wav" WAVE
    INDEX 01 00:00:00
FILE "06 - Lazy.wav" WAVE
  TRACK 06 AUDIO
    TITLE "Lazy"
    PERFORMER "Deep Purple"
    INDEX 01 00:00:00
  TRACK 07 AUDIO
    TITLE "Space Truckin'"
    PERFORMER "Deep Purple"
    INDEX 00 10:33:72
FILE "07 - Space Truckin'.wav" WAVE
    INDEX 01 00:00:00

Лог Audiochecker

AUDIOCHECKER v2.0 beta (build 457) - by Dester - opdester@freemail.hu
~~~~~~~~~~~~~~~~~~~~~~~~~~~~~~~~~~
-=== DO NOT EDIT THIS FILE! ===-
Path: ...\Deep Purple - Made In Japan (1972) (DCC, GZS-1120) [FLAC]
1 -=- 01 - Highway Star.flac -=- CDDA (100%)
2 -=- 02 - Child In Time.flac -=- CDDA (100%)
3 -=- 03 - Smoke On The Water.flac -=- CDDA (100%)
4 -=- 04 - The Mule.flac -=- CDDA (100%)
5 -=- 05 - Strange Kind Of Woman.flac -=- CDDA (100%)
6 -=- 06 - Lazy.flac -=- CDDA (100%)
7 -=- 07 - Space Truckin'.flac -=- CDDA (100%)
Summary 100,00% CDDA
133191060

Скриншот спектра частот

--Не забываем говорить
[Профиль] [ЛС]
Показать сообщения:    

Текущее время: Сегодня 02:17

Часовой пояс: GMT



Вы не можете начинать темы
Вы не можете отвечать на сообщения
Вы не можете редактировать свои сообщения
Вы не можете удалять свои сообщения
Вы не можете голосовать в опросах
Вы не можете прикреплять файлы к сообщениям
Вы не можете скачивать файлы