(Rock,Hard Rock) Deep Purple - Live In Graz 1975 - 2014, FLAC (image + .cue), lossless

 
Автор Сообщение

sergej644 ®

Пол:

Стаж: 4 года 11 месяцев

Сообщений: 6045

Откуда: Soviet Union



Награды: Нет

Торрент-статистика

Создавать темы 10-Окт-2014 08:46

[Цитировать]

- Deep Purple - Live In Graz 1975

Страна: UK
Страна производитель диска: Germany
Жанр: Rock,Hard Rock
Год выпуска: 1975
Год переиздания: 2014
Издатель: (Лейбл) ear Music
Номер по каталогу: 020955ERE
Формат: FLAC
Тип рипа: (Image+.cue)
Битрейт аудио: lossless
Продолжительность: 01:19:57
--

треклист

01. Burn (07:51)
02. Stormbringer (05:08)
03. The Gypsy (05:23)
04. Lady Double Dealer (04:31)
05. Mistreated (14:40)
06. Smoke On The Water (09:43)
07. You Fool No One (12:15)
08. Space Truckin' (20:22)
-

лог создания рипа

Exact Audio Copy V1.0 beta 3 from 29. August 2011
EAC extraction logfile from 3. October 2014, 23:29
Deep Purple / Live In Graz 1975
Used drive  : MATSHITABD-CMB UJ242AS   Adapter: 0  ID: 1
Read mode               : Secure
Utilize accurate stream : Yes
Defeat audio cache      : Yes
Make use of C2 pointers : No
Read offset correction                      : 103
Overread into Lead-In and Lead-Out          : No
Fill up missing offset samples with silence : Yes
Delete leading and trailing silent blocks   : No
Null samples used in CRC calculations       : Yes
Used interface                              : Installed external ASPI interface
Used output format              : User Defined Encoder
Selected bitrate                : 1024 kBit/s
Quality                         : High
Add ID3 tag                     : Yes
Command line compressor         : C:\Program Files (x86)\Exact Audio Copy\Flac\flac.exe
Additional command line options : -V -8 -T "Date=%year%" -T "Genre=%genre%" %source%
TOC of the extracted CD
     Track |   Start  |  Length  | Start sector | End sector
    ---------------------------------------------------------
        1  |  0:00.00 |  7:51.34 |         0    |    35358
        2  |  7:51.34 |  5:08.38 |     35359    |    58496
        3  | 12:59.72 |  5:23.02 |     58497    |    82723
        4  | 18:22.74 |  4:31.52 |     82724    |   103100
        5  | 22:54.51 | 14:40.72 |    103101    |   169172
        6  | 37:35.48 |  9:43.54 |    169173    |   212951
        7  | 47:19.27 | 12:15.51 |    212952    |   268127
        8  | 59:35.03 | 20:22.01 |    268128    |   359778
Range status and errors
Selected range
     Filename C:\EACrip\Deep Purple - Live In Graz 1975.wav
     Peak level 100.0 %
     Extraction speed 2.7 X
     Range quality 99.9 %
     Test CRC 69A3C296
     Copy CRC 69A3C296
     Copy OK
No errors occurred
AccurateRip summary
Track  1  not present in database
Track  2  not present in database
Track  3  not present in database
Track  4  not present in database
Track  5  not present in database
Track  6  not present in database
Track  7  not present in database
Track  8  not present in database
None of the tracks are present in the AccurateRip database
End of status report

содержание индексной карты *cue

REM GENRE Rock
REM DATE 2014
REM DISCID 6C12BD08
REM COMMENT "ExactAudioCopy v1.0b3"
PERFORMER "Deep Purple"
TITLE "Live In Graz 1975"
FILE "Deep Purple - Live In Graz 1975.flac" WAVE
  TRACK 01 AUDIO
    TITLE "Burn"
    PERFORMER "Deep Purple"
    INDEX 01 00:00:00
  TRACK 02 AUDIO
    TITLE "Stormbringer"
    PERFORMER "Deep Purple"
    INDEX 01 07:51:34
  TRACK 03 AUDIO
    TITLE "The Gypsy"
    PERFORMER "Deep Purple"
    INDEX 01 12:59:72
  TRACK 04 AUDIO
    TITLE "Lady Double Dealer"
    PERFORMER "Deep Purple"
    INDEX 01 18:22:74
  TRACK 05 AUDIO
    TITLE "Mistreated"
    PERFORMER "Deep Purple"
    INDEX 01 22:54:51
  TRACK 06 AUDIO
    TITLE "Smoke On The Water"
    PERFORMER "Deep Purple"
    INDEX 01 37:35:48
  TRACK 07 AUDIO
    TITLE "You Fool No One"
    PERFORMER "Deep Purple"
    INDEX 01 47:19:27
  TRACK 08 AUDIO
    TITLE "Space Truckin'"
    PERFORMER "Deep Purple"
    INDEX 01 59:35:03
[Профиль] [ЛС]
Показать сообщения:    

Текущее время: Сегодня 00:21

Часовой пояс: GMT



Вы не можете начинать темы
Вы не можете отвечать на сообщения
Вы не можете редактировать свои сообщения
Вы не можете удалять свои сообщения
Вы не можете голосовать в опросах
Вы не можете прикреплять файлы к сообщениям
Вы не можете скачивать файлы