(Rock,Classic Rock,Hard Rock) Deep Purple - Live Contcert (13CD) - 1972 - 1997 [FLAC, image+.cue, lossless]

 
Автор Сообщение

sergej644 ®

Пол:

Стаж: 4 года 11 месяцев

Сообщений: 6046

Откуда: Soviet Union



Награды: Нет

Торрент-статистика

Создавать темы 28-Май-2015 11:21

[Цитировать]

-Deep Purple / Live Contcert (13CD)-- Год издания: 1972 - 1997
Страна: UK
Жанр: Rock,Classic Rock,Hard Rock
Продолжительность: 14:07:59-Лейбл издания: EMI, VAP, ACH, FUEL,THAMES
Тип альбома: Live
Страна-выпуска диска: Holland, UK, USA, JAPAN
Формат: FLAC
Битрейт аудио: lossless
Тип рипа: image+.cue
Наличие сканов в содержимом раздачи: да
---

Трэклист

1972 - Deep Purple Live In Japan (3CD)

Disc 1 | 01:16:23

-Год выпуска: 1972
Remastered: 1993
Лейбл издания: EMI
Страна производитель диска: Italy
Номер по каталогу: 7 48050 2


01.Highway Star (07:38)
02.Child In Time (11:52)
03.The Mule (Drum Solo) (09:37)
04.Strange Kind Of Woman (08:51)
05.Lazy (10:27)
06.Space Truckin' (21:36)
07.Black Night (Encore) (06:26)

лог создания рипа

Exact Audio Copy V0.99 prebeta 5 from 4. May 2009
Отчёт EAC об извлечении, выполненном 22. мая 2011, 17:27
Deep Purple / Live In Japan [Disc 1]
Дисковод: Optiarc DVD RW AD-7240S   Adapter: 1  ID: 0
Режим чтения                 : Достоверность
Использование точного потока : Да
Отключение кэша аудио        : Да
Использование указателей C2  : Нет
Коррекция смещения при чтении                     : 48
Способность читать области Lead-in и Lead-out     : Нет
Заполнение пропущенных сэмплов тишиной            : Да
Удаление блоков с тишиной в начале и конце        : Нет
При вычислениях CRC использовались нулевые сэмплы : Да
Интерфейс                                         : Встроенный Win32-интерфейс для Win NT/2000
Выходной формат          : Пользовательский кодировщик
Выбранный битрейт        : 768 kBit/s
Качество                 : Высокий
Добавление ID3-тэга      : Нет
Утилита сжатия           : C:\Program Files\Exact Audio Copy\FLAC\FLAC.EXE
Дополнительные параметры : -6 -V -T "ARTIST=%a" -T "TITLE=%t" -T "ALBUM=%g" -T "DATE=%y" -T "TRACKNUMBER=%n" -T "GENRE=%m" -T "COMMENT=%e" %s -o %d
TOC извлечённого CD
     Трек |   Старт  | Длительность | Начальный сектор | Конечный сектор
    ---------------------------------------------------------------------
       1  |  0:00.33 |    7:37.47   |          33      |      34354
       2  |  7:38.05 |   11:51.15   |       34355      |      87694
       3  | 19:29.20 |    9:36.43   |       87695      |     130937
       4  | 29:05.63 |    8:50.42   |      130938      |     170729
       5  | 37:56.30 |   10:26.08   |      170730      |     217687
       6  | 48:22.38 |   21:35.05   |      217688      |     314817
       7  | 69:57.43 |    6:25.65   |      314818      |     343757
Характеристики диапазона извлечения и сообщения об ошибках
Выбранный диапазон
     Имя файла E:\music\Deep Purple 1 press\Deep Purple Live In Japan\Disc1\Deep Purple - Live In Japan [Disc 1].wav
     Пиковый уровень 97.7 %
     Качество диапазона 100.0 %
     CRC теста 56B3FD7B
     CRC копии 56B3FD7B
     Копирование... OK
Ошибок не произошло
AccurateRip: сводка
Трек  1  точное извлечение (доверие 56)  [4D57135F]
Трек  2  точное извлечение (доверие 57)  [002DAB8C]
Трек  3  точное извлечение (доверие 57)  [09DB9E2F]
Трек  4  точное извлечение (доверие 58)  [3B7DDF58]
Трек  5  точное извлечение (доверие 57)  [37AE8680]
Трек  6  точное извлечение (доверие 55)  [3D288873]
Трек  7  точное извлечение (доверие 55)  [B0F098BB]
Все треки извлечены точно
Конец отчёта

содержание индексной карты *cue

REM GENRE "Classic Rock"
REM DATE 1993
REM DISCID 6211E707
REM COMMENT "ExactAudioCopy v0.99pb5"
PERFORMER "Deep Purple"
TITLE "Live In Japan [Disc 1]"
FILE "Deep Purple - Live In Japan [Disc 1].flac" WAVE
  TRACK 01 AUDIO
    TITLE "Highway Star"
    PERFORMER "Deep Purple"
    INDEX 00 00:00:00
    INDEX 01 00:00:33
  TRACK 02 AUDIO
    TITLE "Child In Time"
    PERFORMER "Deep Purple"
    INDEX 00 07:38:03
    INDEX 01 07:38:05
  TRACK 03 AUDIO
    TITLE "The Mule (Drum Solo)"
    PERFORMER "Deep Purple"
    INDEX 00 19:29:18
    INDEX 01 19:29:20
  TRACK 04 AUDIO
    TITLE "Strange Kind Of Woman"
    PERFORMER "Deep Purple"
    INDEX 00 29:05:60
    INDEX 01 29:05:63
  TRACK 05 AUDIO
    TITLE "Lazy"
    PERFORMER "Deep Purple"
    INDEX 00 37:56:28
    INDEX 01 37:56:30
  TRACK 06 AUDIO
    TITLE "Space Truckin'"
    PERFORMER "Deep Purple"
    INDEX 00 48:22:35
    INDEX 01 48:22:38
  TRACK 07 AUDIO
    TITLE "Black Night (Encore)"
    PERFORMER "Deep Purple"
    INDEX 00 69:57:40
    INDEX 01 69:57:43

Disc 2 | 01:18:36

-Год выпуска: 1972
Remastered: 1993
Лейбл издания: EMI
Страна производитель диска: Italy
Номер по каталогу: 7 48050 2


01.Highway Star (07:09)
02.Smoke On The Water (07:26)
03.Child In Time (12:31)
04.The Mule (Drum Solo) (10:22)
05.Strange Kind Of Woman (10:36)
06.Lazy (10:22)
07.Space Truckin' (20:14)

лог создания рипа

Exact Audio Copy V0.99 prebeta 5 from 4. May 2009
Отчёт EAC об извлечении, выполненном 18. февраля 2011, 20:06
Deep Purple / Live In Japan [Disc 2]
Дисковод: Optiarc DVD RW AD-7240S   Adapter: 1  ID: 0
Режим чтения                 : Достоверность
Использование точного потока : Да
Отключение кэша аудио        : Да
Использование указателей C2  : Нет
Коррекция смещения при чтении                     : 48
Способность читать области Lead-in и Lead-out     : Нет
Заполнение пропущенных сэмплов тишиной            : Да
Удаление блоков с тишиной в начале и конце        : Нет
При вычислениях CRC использовались нулевые сэмплы : Да
Интерфейс                                         : Встроенный Win32-интерфейс для Win NT/2000
Выходной формат          : Пользовательский кодировщик
Выбранный битрейт        : 768 kBit/s
Качество                 : Высокий
Добавление ID3-тэга      : Нет
Утилита сжатия           : C:\Program Files\Exact Audio Copy\FLAC\FLAC.EXE
Дополнительные параметры : -6 -V -T "ARTIST=%a" -T "TITLE=%t" -T "ALBUM=%g" -T "DATE=%y" -T "TRACKNUMBER=%n" -T "GENRE=%m" -T "COMMENT=%e" %s -o %d
TOC извлечённого CD
     Трек |   Старт  | Длительность | Начальный сектор | Конечный сектор
    ---------------------------------------------------------------------
       1  |  0:00.33 |    7:08.42   |          33      |      32174
       2  |  7:09.00 |    7:25.18   |       32175      |      65567
       3  | 14:34.18 |   12:30.02   |       65568      |     121819
       4  | 27:04.20 |   10:21.70   |      121820      |     168464
       5  | 37:26.15 |   10:35.30   |      168465      |     216119
       6  | 48:01.45 |   10:21.23   |      216120      |     262717
       7  | 58:22.68 |   20:13.40   |      262718      |     353732
Характеристики диапазона извлечения и сообщения об ошибках
Выбранный диапазон
     Имя файла E:\music\Deep Purple 1 press\Deep Purple Live\Deep Purple Live In Japan\Disc2\Deep Purple - Live In Japan [Disc 2].wav
     Пиковый уровень 100.0 %
     Качество диапазона 100.0 %
     CRC теста BA0E1D58
     CRC копии BA0E1D58
     Копирование... OK
Ошибок не произошло
AccurateRip: сводка
Трек  1  точное извлечение (доверие 46)  [18A45F88]
Трек  2  точное извлечение (доверие 48)  [A88980D2]
Трек  3  точное извлечение (доверие 48)  [BCAD8DFE]
Трек  4  точное извлечение (доверие 47)  [8B2FE505]
Трек  5  точное извлечение (доверие 49)  [A9F84DB5]
Трек  6  точное извлечение (доверие 49)  [26681AEC]
Трек  7  точное извлечение (доверие 41)  [7795D445]
Все треки извлечены точно
Конец отчёта

содержание индексной карты *cue

REM GENRE "Classic Rock"
REM DATE 1993
REM DISCID 5F126C07
REM COMMENT "ExactAudioCopy v0.99pb5"
PERFORMER "Deep Purple"
TITLE "Live In Japan [Disc 2]"
FILE "Deep Purple - Live In Japan [Disc 2].flac" WAVE
  TRACK 01 AUDIO
    TITLE "Highway Star"
    PERFORMER "Deep Purple"
    INDEX 00 00:00:00
    INDEX 01 00:00:33
  TRACK 02 AUDIO
    TITLE "Smoke On The Water"
    PERFORMER "Deep Purple"
    INDEX 00 07:08:73
    INDEX 01 07:09:00
  TRACK 03 AUDIO
    TITLE "Child In Time"
    PERFORMER "Deep Purple"
    INDEX 00 14:34:15
    INDEX 01 14:34:18
  TRACK 04 AUDIO
    TITLE "The Mule (Drum Solo)"
    PERFORMER "Deep Purple"
    INDEX 00 27:04:18
    INDEX 01 27:04:20
  TRACK 05 AUDIO
    TITLE "Strange Kind Of Woman"
    PERFORMER "Deep Purple"
    INDEX 00 37:26:13
    INDEX 01 37:26:15
  TRACK 06 AUDIO
    TITLE "Lazy"
    PERFORMER "Deep Purple"
    INDEX 00 48:01:43
    INDEX 01 48:01:45
  TRACK 07 AUDIO
    TITLE "Space Truckin'"
    PERFORMER "Deep Purple"
    INDEX 00 58:22:65
    INDEX 01 58:22:68

Disc 3 | 01:15:53

-Год выпуска: 1972
Remastered: 1993
Лейбл издания: EMI
Страна производитель диска: Italy
Номер по каталогу: 7 48050 2


01.Highway Star (07:16)
02.Smoke On The Water (07:07)
03.Child In Time (11:33)
04.Strange Kind Of Woman (11:27)
05.Lazy (11:17)
06.Space Truckin' (19:20)
07.Speed King (encore) (07:56)

лог создания рипа

Exact Audio Copy V0.99 prebeta 5 from 4. May 2009
Отчёт EAC об извлечении, выполненном 18. февраля 2011, 21:47
Deep Purple / Live In Japan [Disc 3]
Дисковод: Optiarc DVD RW AD-7240S   Adapter: 1  ID: 0
Режим чтения                 : Достоверность
Использование точного потока : Да
Отключение кэша аудио        : Да
Использование указателей C2  : Нет
Коррекция смещения при чтении                     : 48
Способность читать области Lead-in и Lead-out     : Нет
Заполнение пропущенных сэмплов тишиной            : Да
Удаление блоков с тишиной в начале и конце        : Нет
При вычислениях CRC использовались нулевые сэмплы : Да
Интерфейс                                         : Встроенный Win32-интерфейс для Win NT/2000
Выходной формат          : Пользовательский кодировщик
Выбранный битрейт        : 768 kBit/s
Качество                 : Высокий
Добавление ID3-тэга      : Нет
Утилита сжатия           : C:\Program Files\Exact Audio Copy\FLAC\FLAC.EXE
Дополнительные параметры : -6 -V -T "ARTIST=%a" -T "TITLE=%t" -T "ALBUM=%g" -T "DATE=%y" -T "TRACKNUMBER=%n" -T "GENRE=%m" -T "COMMENT=%e" %s -o %d
TOC извлечённого CD
     Трек |   Старт  | Длительность | Начальный сектор | Конечный сектор
    ---------------------------------------------------------------------
       1  |  0:00.33 |    7:15.72   |          33      |      32729
       2  |  7:16.30 |    7:06.28   |       32730      |      64707
       3  | 14:22.58 |   11:32.10   |       64708      |     116617
       4  | 25:54.68 |   11:26.45   |      116618      |     168112
       5  | 37:21.38 |   11:16.37   |      168113      |     218849
       6  | 48:38.00 |   19:19.08   |      218850      |     305782
       7  | 67:57.08 |    7:55.50   |      305783      |     341457
Характеристики диапазона извлечения и сообщения об ошибках
Выбранный диапазон
     Имя файла E:\music\Deep Purple 1 press\Deep Purple Live\Deep Purple Live In Japan\Disc3\Deep Purple - Live In Japan [Disc 3].wav
     Пиковый уровень 99.8 %
     Качество диапазона 100.0 %
     CRC теста 062F9F41
     CRC копии 062F9F41
     Копирование... OK
Ошибок не произошло
AccurateRip: сводка
Трек  1  точное извлечение (доверие 19)  [5BAAF1EC]
Трек  2  точное извлечение (доверие 19)  [6BCACEA8]
Трек  3  точное извлечение (доверие 19)  [30236056]
Трек  4  точное извлечение (доверие 19)  [DEFE7566]
Трек  5  точное извлечение (доверие 19)  [ED7CD957]
Трек  6  точное извлечение (доверие 17)  [46A45EE5]
Трек  7  точное извлечение (доверие 19)  [E30A7FDC]
Все треки извлечены точно
Конец отчёта

содержание индексной карты *cue

REM GENRE "Classic Rock"
REM DATE 1993
REM DISCID 6011C807
REM COMMENT "ExactAudioCopy v0.99pb5"
PERFORMER "Deep Purple"
TITLE "Live In Japan [Disc 3]"
FILE "Deep Purple - Live In Japan [Disc 3].flac" WAVE
  TRACK 01 AUDIO
    TITLE "Highway Star"
    PERFORMER "Deep Purple"
    INDEX 00 00:00:00
    INDEX 01 00:00:33
  TRACK 02 AUDIO
    TITLE "Smoke On The Water"
    PERFORMER "Deep Purple"
    INDEX 00 07:16:28
    INDEX 01 07:16:30
  TRACK 03 AUDIO
    TITLE "Child In Time"
    PERFORMER "Deep Purple"
    INDEX 00 14:22:55
    INDEX 01 14:22:58
  TRACK 04 AUDIO
    TITLE "Strange Kind Of Woman"
    PERFORMER "Deep Purple"
    INDEX 00 25:54:65
    INDEX 01 25:54:68
  TRACK 05 AUDIO
    TITLE "Lazy"
    PERFORMER "Deep Purple"
    INDEX 00 37:21:35
    INDEX 01 37:21:38
  TRACK 06 AUDIO
    TITLE "Space Truckin'"
    PERFORMER "Deep Purple"
    INDEX 00 48:37:73
    INDEX 01 48:38:00
  TRACK 07 AUDIO
    TITLE "Speed King (encore)"
    PERFORMER "Deep Purple"
    INDEX 00 67:57:05
    INDEX 01 67:57:08

1972 - Made In Japan | 01:16:45

-Год выпуска: 1972
Remastered: N/A
Лейбл издания: EMI
Страна производитель диска: Holland
Номер по каталогу: 7 48050 2


01.Highway Star (06:51)
02.Child in Time (12:25)
03.Smoke on the Water (07:32)
04.The Mule (Drum Solo) (09:50)
05.Strange Kind of Woman (09:36)
06.Lazy (10:51)
07.Space Truckinґ (19:42)

лог создания рипа

Exact Audio Copy V0.99 prebeta 5 from 4. May 2009
Отчёт EAC об извлечении, выполненном 16. июля 2009, 11:33
Deep Purple / Made in Japan
Дисковод: MATSHITADVD-RAM UJ-850S   Adapter: 1  ID: 0
Режим чтения                 : Достоверность
Использование точного потока : Да
Отключение кэша аудио        : Да
Использование указателей C2  : Нет
Коррекция смещения при чтении                     : 102
Способность читать области Lead-in и Lead-out     : Нет
Заполнение пропущенных сэмплов тишиной            : Да
Удаление блоков с тишиной в начале и конце        : Нет
При вычислениях CRC использовались нулевые сэмплы : Да
Интерфейс                                         : Встроенный Win32-интерфейс для Win NT/2000
Выходной формат          : Пользовательский кодировщик
Выбранный битрейт        : 1024 kBit/s
Качество                 : Высокий
Добавление ID3-тэга      : Нет
Утилита сжатия           : C:\Program Files\Exact Audio Copy\Flac\flac.exe
Дополнительные параметры : -8 -V -T "ARTIST=%a" -T "TITLE=%t" -T "ALBUM=%g" -T "DATE=%y" -T "TRACKNUMBER=%n" -T "TOTALTRACKS=%x" -T "GENRE=%m" -T "ALBUM ARTIST=%v" -T "ALBUMARTIST=%v" -T "COMMENT=EAC V0.99 prebeta 5, Secure Mode, AccurateRip, FLAC -8" %s
TOC извлечённого CD
     Трек |   Старт  | Длительность | Начальный сектор | Конечный сектор
    ---------------------------------------------------------------------
       1  |  0:00.33 |    6:50.70   |          33      |      30852
       2  |  6:51.28 |   12:24.22   |       30853      |      86674
       3  | 19:15.50 |    7:31.58   |       86675      |     120557
       4  | 26:47.33 |    9:49.32   |      120558      |     164764
       5  | 36:36.65 |    9:35.43   |      164765      |     207932
       6  | 46:12.33 |   10:50.67   |      207933      |     256749
       7  | 57:03.25 |   19:41.28   |      256750      |     345352
Характеристики диапазона извлечения и сообщения об ошибках
Выбранный диапазон
     Имя файла C:\Users\ALIK\Desktop\music\Deep Purple Made In Japan\Deep Purple - Made in Japan.wav
     Пиковый уровень 97.7 %
     Качество диапазона 99.9 %
     CRC теста 4CD2EA37
     CRC копии 4CD2EA37
     Копирование... OK
Ошибок не произошло
AccurateRip: сводка
Трек  1  точное извлечение (доверие 93)  [83AD9A19]
Трек  2  точное извлечение (доверие 92)  [C9300B91]
Трек  3  точное извлечение (доверие 93)  [D05CFA25]
Трек  4  точное извлечение (доверие 90)  [2C46F39E]
Трек  5  точное извлечение (доверие 91)  [2FA7072B]
Трек  6  точное извлечение (доверие 90)  [33795389]
Трек  7  точное извлечение (доверие 86)  [5DE2086F]
Все треки извлечены точно
Конец отчёта

содержание индексной карты *cue

REM GENRE Rock
REM DATE 1972
REM DISCID 5E11FC07
REM COMMENT "ExactAudioCopy v0.99pb5"
PERFORMER "Deep Purple"
TITLE "Made in Japan  "
FILE "Deep Purple - Made in Japan.flac" WAVE
  TRACK 01 AUDIO
    TITLE "Highway Star"
    PERFORMER "Deep Purple"
    INDEX 00 00:00:00
    INDEX 01 00:00:33
  TRACK 02 AUDIO
    TITLE "Child in Time"
    PERFORMER "Deep Purple"
    INDEX 00 06:50:03
    INDEX 01 06:51:28
  TRACK 03 AUDIO
    TITLE "Smoke on the Water"
    PERFORMER "Deep Purple"
    INDEX 00 19:14:15
    INDEX 01 19:15:50
  TRACK 04 AUDIO
    TITLE "The Mule (Drum Solo)"
    PERFORMER "Deep Purple"
    INDEX 00 26:45:70
    INDEX 01 26:47:33
  TRACK 05 AUDIO
    TITLE "Strange Kind of Woman"
    PERFORMER "Deep Purple"
    INDEX 00 36:35:30
    INDEX 01 36:36:65
  TRACK 06 AUDIO
    TITLE "Lazy"
    PERFORMER "Deep Purple"
    INDEX 00 46:12:30
    INDEX 01 46:12:33
  TRACK 07 AUDIO
    TITLE "Space Truckinґ"
    PERFORMER "Deep Purple"
    INDEX 00 57:02:23
    INDEX 01 57:03:25

1974 - Perks And Tit | 00:48:58

-Год выпуска: 1974
Remastered: 2003
Лейбл издания: Sonic Zomm Records
Страна производитель диска: UK
Номер по каталогу: N/A


01.Burn (10:09)
02.Might Just Take Your Life (05:36)
03.Lay Down, Stay Down (05:41)
04.Mistreated (12:32)
05.Smoke On The Water (10:30)
06.Keyboard Solo (04:32)

лог создания рипа

Exact Audio Copy V0.99 prebeta 5 from 4. May 2009
Отчёт EAC об извлечении, выполненном 18. февраля 2011, 17:38
Deep Purple / Perks And Tit
Дисковод: Optiarc DVD RW AD-7240S   Adapter: 1  ID: 0
Режим чтения                 : Достоверность
Использование точного потока : Да
Отключение кэша аудио        : Да
Использование указателей C2  : Нет
Коррекция смещения при чтении                     : 48
Способность читать области Lead-in и Lead-out     : Нет
Заполнение пропущенных сэмплов тишиной            : Да
Удаление блоков с тишиной в начале и конце        : Нет
При вычислениях CRC использовались нулевые сэмплы : Да
Интерфейс                                         : Встроенный Win32-интерфейс для Win NT/2000
Выходной формат          : Пользовательский кодировщик
Выбранный битрейт        : 768 kBit/s
Качество                 : Высокий
Добавление ID3-тэга      : Нет
Утилита сжатия           : C:\Program Files\Exact Audio Copy\FLAC\FLAC.EXE
Дополнительные параметры : -6 -V -T "ARTIST=%a" -T "TITLE=%t" -T "ALBUM=%g" -T "DATE=%y" -T "TRACKNUMBER=%n" -T "GENRE=%m" -T "COMMENT=%e" %s -o %d
TOC извлечённого CD
     Трек |   Старт  | Длительность | Начальный сектор | Конечный сектор
    ---------------------------------------------------------------------
       1  |  0:00.00 |   10:08.23   |           0      |      45622
       2  | 10:08.23 |    5:35.15   |       45623      |      70762
       3  | 15:43.38 |    5:40.26   |       70763      |      96288
       4  | 21:23.64 |   12:31.66   |       96289      |     152679
       5  | 33:55.55 |   10:29.69   |      152680      |     199923
       6  | 44:25.49 |    4:31.47   |      199924      |     220295
Характеристики диапазона извлечения и сообщения об ошибках
Выбранный диапазон
     Имя файла E:\music\Deep Purple 1 press\Deep Purple Live\Deep Purple Perks And Tit 1974\Deep Purple - Perks And Tit.wav
     Пиковый уровень 98.8 %
     Качество диапазона 100.0 %
     CRC теста BB525A09
     CRC копии BB525A09
     Копирование... OK
Ошибок не произошло
AccurateRip: сводка
Трек  1  точное извлечение (доверие 5)  [9951F350]
Трек  2  точное извлечение (доверие 5)  [07FBFC12]
Трек  3  точное извлечение (доверие 5)  [EBED319E]
Трек  4  точное извлечение (доверие 5)  [D52B2EB1]
Трек  5  точное извлечение (доверие 5)  [C1A988C4]
Трек  6  точное извлечение (доверие 5)  [A88BDF38]
Все треки извлечены точно
Конец отчёта

содержание индексной карты *cue

REM GENRE "Hard Rock"
REM DATE 1974
REM DISCID 4C0B7906
REM COMMENT "ExactAudioCopy v0.99pb5"
PERFORMER "Deep Purple"
TITLE "Perks And Tit"
FILE "Deep Purple - Perks And Tit.flac" WAVE
  TRACK 01 AUDIO
    TITLE "Burn"
    PERFORMER "Deep Purple"
    INDEX 01 00:00:00
  TRACK 02 AUDIO
    TITLE "Might Just Take Your Life"
    PERFORMER "Deep Purple"
    INDEX 00 08:46:26
    INDEX 01 10:08:23
  TRACK 03 AUDIO
    TITLE "Lay Down, Stay Down"
    PERFORMER "Deep Purple"
    INDEX 00 14:50:03
    INDEX 01 15:43:38
  TRACK 04 AUDIO
    TITLE "Mistreated"
    PERFORMER "Deep Purple"
    INDEX 00 20:32:21
    INDEX 01 21:23:64
  TRACK 05 AUDIO
    TITLE "Smoke On The Water"
    PERFORMER "Deep Purple"
    INDEX 00 33:24:46
    INDEX 01 33:55:55
  TRACK 06 AUDIO
    TITLE "Keyboard Solo"
    PERFORMER "Deep Purple"
    INDEX 00 44:24:48
    INDEX 01 44:25:49

1975 - This Time Around Live In Tokyo (2CD)

Disc 1 | 00:50:26

-Год выпуска: 1975
Remastered: 2001
Лейбл издания: VAP Purple Records
Страна производитель диска: N/A
Номер по каталогу: VPCK - 85 326


01.Burn (08:40)
02.Lady Luck (03:32)
03.Love Child (05:01)
04.Gettin' Tighter (16:53)
05.Smoke On The Water?Georgia On My Mind (10:15)
06.Wild Dogs (06:08)

лог создания рипа

Exact Audio Copy V0.99 prebeta 5 from 4. May 2009
Отчёт EAC об извлечении, выполненном 18. февраля 2011, 18:51
Deep Purple / This Time Around Live In Tokyo 75 (Disc 1)
Дисковод: Optiarc DVD RW AD-7240S   Adapter: 1  ID: 0
Режим чтения                 : Достоверность
Использование точного потока : Да
Отключение кэша аудио        : Да
Использование указателей C2  : Нет
Коррекция смещения при чтении                     : 48
Способность читать области Lead-in и Lead-out     : Нет
Заполнение пропущенных сэмплов тишиной            : Да
Удаление блоков с тишиной в начале и конце        : Нет
При вычислениях CRC использовались нулевые сэмплы : Да
Интерфейс                                         : Встроенный Win32-интерфейс для Win NT/2000
Выходной формат          : Пользовательский кодировщик
Выбранный битрейт        : 768 kBit/s
Качество                 : Высокий
Добавление ID3-тэга      : Нет
Утилита сжатия           : C:\Program Files\Exact Audio Copy\FLAC\FLAC.EXE
Дополнительные параметры : -6 -V -T "ARTIST=%a" -T "TITLE=%t" -T "ALBUM=%g" -T "DATE=%y" -T "TRACKNUMBER=%n" -T "GENRE=%m" -T "COMMENT=%e" %s -o %d
TOC извлечённого CD
     Трек |   Старт  | Длительность | Начальный сектор | Конечный сектор
    ---------------------------------------------------------------------
       1  |  0:00.00 |    8:39.41   |           0      |      38965
       2  |  8:39.41 |    3:31.23   |       38966      |      54813
       3  | 12:10.64 |    5:00.65   |       54814      |      77378
       4  | 17:11.54 |   16:52.24   |       77379      |     153302
       5  | 34:04.03 |   10:14.20   |      153303      |     199372
       6  | 44:18.23 |    6:07.21   |      199373      |     226918
Характеристики диапазона извлечения и сообщения об ошибках
Выбранный диапазон
     Имя файла E:\music\Deep Purple 1 press\Deep Purple Live\Deep Purple This Time Around Live In Tokyo 75\Disc1\Deep Purple - This Time Around Live In Tokyo 75 (Disc 1).wav
     Пиковый уровень 98.5 %
     Качество диапазона 100.0 %
     CRC теста BE2A0BAF
     CRC копии BE2A0BAF
     Копирование... OK
Ошибок не произошло
AccurateRip: сводка
Трек  1  точное извлечение (доверие 1)  [F7E2CD1B]
Трек  2  нет в базе данных
Трек  3  точное извлечение (доверие 1)  [E17328D5]
Трек  4  точное извлечение (доверие 1)  [7BB7DAA5]
Трек  5  точное извлечение (доверие 1)  [B4908F04]
Трек  6  точное извлечение (доверие 1)  [D45B8677]
5 трек(и) скопированы точно
1 трек(и) не содержатся в базе AccurateRip
Некоторые треки не прошли проверку на точность
Конец отчёта

содержание индексной карты *cue

REM GENRE "Hard Rock"
REM DATE 1975
REM DISCID 370BD106
REM COMMENT "ExactAudioCopy v0.99pb5"
PERFORMER "Deep Purple"
TITLE "This Time Around Live In Tokyo 75 (Disc 1)"
FILE "Deep Purple - This Time Around Live In Tokyo 75 (Disc 1).flac" WAVE
  TRACK 01 AUDIO
    TITLE "Burn"
    PERFORMER "Deep Purple"
    INDEX 01 00:00:00
  TRACK 02 AUDIO
    TITLE "Lady Luck"
    PERFORMER "Deep Purple"
    INDEX 01 08:39:41
  TRACK 03 AUDIO
    TITLE "Love Child"
    PERFORMER "Deep Purple"
    INDEX 01 12:10:64
  TRACK 04 AUDIO
    TITLE "Gettin' Tighter"
    PERFORMER "Deep Purple"
    INDEX 01 17:11:54
  TRACK 05 AUDIO
    TITLE "Smoke On The Water?Georgia On My Mind"
    PERFORMER "Deep Purple"
    INDEX 01 34:04:03
  TRACK 06 AUDIO
    TITLE "Wild Dogs"
    PERFORMER "Deep Purple"
    INDEX 01 44:18:23

Disc 2 | 01:15:26

-Год выпуска: 1975
Remastered: 2001
Лейбл издания: VAP Purple Records
Страна производитель диска: N/A
Номер по каталогу: VPCK - 85 326


01.I Need Love (05:49)
02.Soldier Of Fortune (01:48)
03.Jon Lord Solo (09:44)
04.Lazy & Drum Solo (13:34)
05.This Time Around (03:39)
06.Owed To G (03:30)
07.Tommy Bolin Guitar Solo (07:10)
08.Drifter (05:56)
09.You Keep On Moving (06:39)
10.Stormbringer (10:09)
11.Highway Star (07:32)

лог создания рипа

Exact Audio Copy V0.99 prebeta 5 from 4. May 2009
Отчёт EAC об извлечении, выполненном 18. февраля 2011, 19:28
Deep Purple / This Time Around Live In Tokyo 75 (Disc 2)
Дисковод: Optiarc DVD RW AD-7240S   Adapter: 1  ID: 0
Режим чтения                 : Достоверность
Использование точного потока : Да
Отключение кэша аудио        : Да
Использование указателей C2  : Нет
Коррекция смещения при чтении                     : 48
Способность читать области Lead-in и Lead-out     : Нет
Заполнение пропущенных сэмплов тишиной            : Да
Удаление блоков с тишиной в начале и конце        : Нет
При вычислениях CRC использовались нулевые сэмплы : Да
Интерфейс                                         : Встроенный Win32-интерфейс для Win NT/2000
Выходной формат          : Пользовательский кодировщик
Выбранный битрейт        : 768 kBit/s
Качество                 : Высокий
Добавление ID3-тэга      : Нет
Утилита сжатия           : C:\Program Files\Exact Audio Copy\FLAC\FLAC.EXE
Дополнительные параметры : -6 -V -T "ARTIST=%a" -T "TITLE=%t" -T "ALBUM=%g" -T "DATE=%y" -T "TRACKNUMBER=%n" -T "GENRE=%m" -T "COMMENT=%e" %s -o %d
TOC извлечённого CD
     Трек |   Старт  | Длительность | Начальный сектор | Конечный сектор
    ---------------------------------------------------------------------
       1  |  0:00.00 |    5:48.53   |           0      |      26152
       2  |  5:48.53 |    1:47.28   |       26153      |      34205
       3  |  7:36.06 |    9:43.29   |       34206      |      77959
       4  | 17:19.35 |   13:33.47   |       77960      |     138981
       5  | 30:53.07 |    3:38.17   |      138982      |     155348
       6  | 34:31.24 |    3:29.06   |      155349      |     171029
       7  | 38:00.30 |    7:09.68   |      171030      |     203272
       8  | 45:10.23 |    5:55.48   |      203273      |     229945
       9  | 51:05.71 |    6:38.52   |      229946      |     259847
      10  | 57:44.48 |   10:08.57   |      259848      |     305504
      11  | 67:53.30 |    7:31.67   |      305505      |     339396
Характеристики диапазона извлечения и сообщения об ошибках
Выбранный диапазон
     Имя файла E:\music\Deep Purple 1 press\Deep Purple Live\Deep Purple This Time Around Live In Tokyo 75\Disc2\Deep Purple - This Time Around Live In Tokyo 75 (Disc 2).wav
     Пиковый уровень 96.6 %
     Качество диапазона 100.0 %
     CRC теста B37DFF78
     CRC копии B37DFF78
     Копирование... OK
Ошибок не произошло
AccurateRip: сводка
Трек  1  точное извлечение (доверие 1)  [7F53F9C1]
Трек  2  точное извлечение (доверие 1)  [D3F0E474]
Трек  3  точное извлечение (доверие 1)  [903B5686]
Трек  4  точное извлечение (доверие 1)  [6BD5F67F]
Трек  5  точное извлечение (доверие 1)  [F57DC646]
Трек  6  точное извлечение (доверие 1)  [423B58F6]
Трек  7  точное извлечение (доверие 1)  [8F478739]
Трек  8  точное извлечение (доверие 1)  [CF096205]
Трек  9  точное извлечение (доверие 1)  [C01EE073]
Трек 10  точное извлечение (доверие 1)  [D3A81BD7]
Трек 11  точное извлечение (доверие 1)  [037815EF]
Все треки извлечены точно
Конец отчёта

содержание индексной карты *cue

REM GENRE "Hard Rock"
REM DATE 1975
REM DISCID 8D11AD0B
REM COMMENT "ExactAudioCopy v0.99pb5"
PERFORMER "Deep Purple"
TITLE "This Time Around Live In Tokyo 75 (Disc 2)"
FILE "Deep Purple - This Time Around Live In Tokyo 75 (Disc 2).flac" WAVE
  TRACK 01 AUDIO
    TITLE "I Need Love"
    PERFORMER "Deep Purple"
    INDEX 01 00:00:00
  TRACK 02 AUDIO
    TITLE "Soldier Of Fortune"
    PERFORMER "Deep Purple"
    INDEX 01 05:48:53
  TRACK 03 AUDIO
    TITLE "Jon Lord Solo"
    PERFORMER "Deep Purple"
    INDEX 01 07:36:06
  TRACK 04 AUDIO
    TITLE "Lazy & Drum Solo"
    PERFORMER "Deep Purple"
    INDEX 01 17:19:35
  TRACK 05 AUDIO
    TITLE "This Time Around"
    PERFORMER "Deep Purple"
    INDEX 01 30:53:07
  TRACK 06 AUDIO
    TITLE "Owed To G"
    PERFORMER "Deep Purple"
    INDEX 01 34:31:24
  TRACK 07 AUDIO
    TITLE "Tommy Bolin Guitar Solo"
    PERFORMER "Deep Purple"
    INDEX 01 38:00:30
  TRACK 08 AUDIO
    TITLE "Drifter"
    PERFORMER "Deep Purple"
    INDEX 01 45:10:23
  TRACK 09 AUDIO
    TITLE "You Keep On Moving"
    PERFORMER "Deep Purple"
    INDEX 01 51:05:71
  TRACK 10 AUDIO
    TITLE "Stormbringer"
    PERFORMER "Deep Purple"
    INDEX 01 57:44:48
  TRACK 11 AUDIO
    TITLE "Highway Star"
    PERFORMER "Deep Purple"
    INDEX 01 67:53:30

1975 - Mk III The Final Concerts (2CD)

Disc 1 | 00:58:04

-Год выпуска: 1975
Remastered: 1996
Лейбл издания: Arhive Records
Страна производитель диска: USA
Номер по каталогу: ACH 80003

01.Burn (07:34)
02.Stormbringer (04:38)
03.Gypsy (05:40)
04.Lady Double Dealer (03:54)
05.Mistreated (12:39)
06.Smoke On The Water (10:18)
07.You Fool No One (13:24)

лог создания рипа

Exact Audio Copy V0.99 prebeta 5 from 4. May 2009
Отчёт EAC об извлечении, выполненном 18. февраля 2011, 16:34
Deep Purple / Mk III : The Final Concerts - Disc 1 of 2
Дисковод: Optiarc DVD RW AD-7240S   Adapter: 1  ID: 0
Режим чтения                 : Достоверность
Использование точного потока : Да
Отключение кэша аудио        : Да
Использование указателей C2  : Нет
Коррекция смещения при чтении                     : 48
Способность читать области Lead-in и Lead-out     : Нет
Заполнение пропущенных сэмплов тишиной            : Да
Удаление блоков с тишиной в начале и конце        : Нет
При вычислениях CRC использовались нулевые сэмплы : Да
Интерфейс                                         : Встроенный Win32-интерфейс для Win NT/2000
Выходной формат          : Пользовательский кодировщик
Выбранный битрейт        : 768 kBit/s
Качество                 : Высокий
Добавление ID3-тэга      : Нет
Утилита сжатия           : C:\Program Files\Exact Audio Copy\FLAC\FLAC.EXE
Дополнительные параметры : -6 -V -T "ARTIST=%a" -T "TITLE=%t" -T "ALBUM=%g" -T "DATE=%y" -T "TRACKNUMBER=%n" -T "GENRE=%m" -T "COMMENT=%e" %s -o %d
TOC извлечённого CD
     Трек |   Старт  | Длительность | Начальный сектор | Конечный сектор
    ---------------------------------------------------------------------
       1  |  0:00.32 |    7:33.65   |          32      |      34071
       2  |  7:34.22 |    4:37.03   |       34072      |      54849
       3  | 12:11.25 |    5:39.07   |       54850      |      80281
       4  | 17:50.32 |    3:53.38   |       80282      |      97794
       5  | 21:43.70 |   12:38.42   |       97795      |     154686
       6  | 34:22.37 |   10:17.70   |      154687      |     201031
       7  | 44:40.32 |   13:24.00   |      201032      |     261331
Характеристики диапазона извлечения и сообщения об ошибках
Выбранный диапазон
     Имя файла E:\music\Deep Purple 1 press\Deep Purple Mk III  The Final Concerts 1975\Disc1\Deep Purple - Mk III   The Final Concerts - Disc 1 of 2.wav
     Пиковый уровень 100.0 %
     Качество диапазона 100.0 %
     CRC теста 312C4C20
     CRC копии 312C4C20
     Копирование... OK
Ошибок не произошло
AccurateRip: сводка
Трек  1  точное извлечение (доверие 5)  [11A0AAC3]
Трек  2  точное извлечение (доверие 6)  [1977047C]
Трек  3  точное извлечение (доверие 5)  [832C05BE]
Трек  4  точное извлечение (доверие 6)  [45466DB3]
Трек  5  точное извлечение (доверие 5)  [036A684D]
Трек  6  точное извлечение (доверие 5)  [A7E67062]
Трек  7  точное извлечение (доверие 4)  [ACD4E093]
Все треки извлечены точно
Конец отчёта

содержание индексной карты *cue

REM GENRE Rock
REM DATE 1975
REM DISCID 4F0D9C07
REM COMMENT "ExactAudioCopy v0.99pb5"
PERFORMER "Deep Purple"
TITLE "Mk III : The Final Concerts - Disc 1 of 2"
FILE "Deep Purple - Mk III   The Final Concerts - Disc 1 of 2.flac" WAVE
  TRACK 01 AUDIO
    TITLE "Burn"
    PERFORMER "Deep Purple"
    INDEX 00 00:00:00
    INDEX 01 00:00:32
  TRACK 02 AUDIO
    TITLE "Stormbringer"
    PERFORMER "Deep Purple"
    INDEX 01 07:34:22
  TRACK 03 AUDIO
    TITLE "Gypsy"
    PERFORMER "Deep Purple"
    INDEX 01 12:11:25
  TRACK 04 AUDIO
    TITLE "Lady Double Dealer"
    PERFORMER "Deep Purple"
    INDEX 01 17:50:32
  TRACK 05 AUDIO
    TITLE "Mistreated"
    PERFORMER "Deep Purple"
    INDEX 01 21:43:70
  TRACK 06 AUDIO
    TITLE "Smoke On The Water"
    PERFORMER "Deep Purple"
    INDEX 01 34:22:37
  TRACK 07 AUDIO
    TITLE "You Fool No One"
    PERFORMER "Deep Purple"
    INDEX 01 44:40:32

Disc 2 | 01:02:08

-Год выпуска: 1975
Remastered: 1996
Лейбл издания: Arhive Records
Страна производитель диска: USA
Номер по каталогу: ACH 80003

01.Space Truckin' (19:56)
02.Going Down + Highway Star (15:14)
03.Mistreated (Alternate Version) (14:15)
04.You Fool No One (Alternate Version) (12:44)

лог создания рипа

Exact Audio Copy V0.99 prebeta 5 from 4. May 2009
Отчёт EAC об извлечении, выполненном 18. февраля 2011, 17:06
Deep Purple / Mk III : The Final Concerts - Disc 2 of 2
Дисковод: Optiarc DVD RW AD-7240S   Adapter: 1  ID: 0
Режим чтения                 : Достоверность
Использование точного потока : Да
Отключение кэша аудио        : Да
Использование указателей C2  : Нет
Коррекция смещения при чтении                     : 48
Способность читать области Lead-in и Lead-out     : Нет
Заполнение пропущенных сэмплов тишиной            : Да
Удаление блоков с тишиной в начале и конце        : Нет
При вычислениях CRC использовались нулевые сэмплы : Да
Интерфейс                                         : Встроенный Win32-интерфейс для Win NT/2000
Выходной формат          : Пользовательский кодировщик
Выбранный битрейт        : 768 kBit/s
Качество                 : Высокий
Добавление ID3-тэга      : Нет
Утилита сжатия           : C:\Program Files\Exact Audio Copy\FLAC\FLAC.EXE
Дополнительные параметры : -6 -V -T "ARTIST=%a" -T "TITLE=%t" -T "ALBUM=%g" -T "DATE=%y" -T "TRACKNUMBER=%n" -T "GENRE=%m" -T "COMMENT=%e" %s -o %d
TOC извлечённого CD
     Трек |   Старт  | Длительность | Начальный сектор | Конечный сектор
    ---------------------------------------------------------------------
       1  |  0:00.32 |   19:56.00   |          32      |      89731
       2  | 19:56.32 |   15:13.43   |       89732      |     158249
       3  | 35:10.00 |   14:14.45   |      158250      |     222344
       4  | 49:24.45 |   12:43.62   |      222345      |     279631
Характеристики диапазона извлечения и сообщения об ошибках
Выбранный диапазон
     Имя файла E:\music\Deep Purple 1 press\Deep Purple Mk III  The Final Concerts 1975\Disc2\Deep Purple - Mk III   The Final Concerts - Disc 2 of 2.wav
     Пиковый уровень 100.0 %
     Качество диапазона 99.9 %
     CRC теста FC474337
     CRC копии FC474337
     Копирование... OK
Ошибок не произошло
AccurateRip: сводка
Трек  1  точное извлечение (доверие 5)  [A3343ABE]
Трек  2  точное извлечение (доверие 5)  [2D579422]
Трек  3  точное извлечение (доверие 5)  [D7280DDB]
Трек  4  точное извлечение (доверие 5)  [E0869512]
Все треки извлечены точно
Конец отчёта

содержание индексной карты *cue

REM GENRE Rock
REM DATE 1975
REM DISCID 320E9004
REM COMMENT "ExactAudioCopy v0.99pb5"
PERFORMER "Deep Purple"
TITLE "Mk III : The Final Concerts - Disc 2 of 2"
FILE "Deep Purple - Mk III   The Final Concerts - Disc 2 of 2.flac" WAVE
  TRACK 01 AUDIO
    TITLE "Space Truckin'"
    PERFORMER "Deep Purple"
    INDEX 00 00:00:00
    INDEX 01 00:00:32
  TRACK 02 AUDIO
    TITLE "Going Down + Highway Star"
    PERFORMER "Deep Purple"
    INDEX 01 19:56:32
  TRACK 03 AUDIO
    TITLE "Mistreated (Alternate Version)"
    PERFORMER "Deep Purple"
    INDEX 01 35:10:00
  TRACK 04 AUDIO
    TITLE "You Fool No One (Alternate Version)"
    PERFORMER "Deep Purple"
    INDEX 00 49:23:45
    INDEX 01 49:24:45

1976 - Made In Europe | 00:45:51

[img][thumb]http://i69.fastpic.ru/big/2015/0528/cf/bf2e850e9534...ng[/thumb][/img] -Год выпуска: 1976
Remastered: 1990
Лейбл издания: EMI
Страна производитель диска: UK
Номер по каталогу: CDP 7 93796 2


01.Burn (07:32)
02.Mistreated (11:43)
03.Lady Double Dealer (04:20)
04.You Fool No One (16:45)
05.Stormbringer (05:34)

лог создания рипа

Exact Audio Copy V0.99 prebeta 5 from 4. May 2009
Отчёт EAC об извлечении, выполненном 13. февраля 2011, 0:40
Deep Purple / Made In Europe
Дисковод: Optiarc DVD RW AD-7240S   Adapter: 1  ID: 0
Режим чтения                 : Достоверность
Использование точного потока : Да
Отключение кэша аудио        : Да
Использование указателей C2  : Нет
Коррекция смещения при чтении                     : 48
Способность читать области Lead-in и Lead-out     : Нет
Заполнение пропущенных сэмплов тишиной            : Да
Удаление блоков с тишиной в начале и конце        : Нет
При вычислениях CRC использовались нулевые сэмплы : Да
Интерфейс                                         : Встроенный Win32-интерфейс для Win NT/2000
Выходной формат          : Пользовательский кодировщик
Выбранный битрейт        : 768 kBit/s
Качество                 : Высокий
Добавление ID3-тэга      : Нет
Утилита сжатия           : C:\Program Files\Exact Audio Copy\FLAC\FLAC.EXE
Дополнительные параметры : -6 -V -T "ARTIST=%a" -T "TITLE=%t" -T "ALBUM=%g" -T "DATE=%y" -T "TRACKNUMBER=%n" -T "GENRE=%m" -T "COMMENT=%e" %s -o %d
TOC извлечённого CD
     Трек |   Старт  | Длительность | Начальный сектор | Конечный сектор
    ---------------------------------------------------------------------
       1  |  0:00.33 |    7:31.55   |          33      |      33912
       2  |  7:32.13 |   11:42.17   |       33913      |      86579
       3  | 19:14.30 |    4:19.23   |       86580      |     106027
       4  | 23:33.53 |   16:44.22   |      106028      |     181349
       5  | 40:18.00 |    5:33.13   |      181350      |     206337
Характеристики диапазона извлечения и сообщения об ошибках
Выбранный диапазон
     Имя файла E:\music\Deep Purple 1 press\Deep Purple - Made In Europe 1976\Deep Purple - Made In Europe.wav
     Пиковый уровень 96.2 %
     Качество диапазона 99.9 %
     CRC теста CA4528F7
     CRC копии CA4528F7
     Копирование... OK
Ошибок не произошло
AccurateRip: сводка
Трек  1  точное извлечение (доверие 15)  [8154E6C5]
Трек  2  точное извлечение (доверие 15)  [91BA081F]
Трек  3  точное извлечение (доверие 15)  [E20BDCAE]
Трек  4  точное извлечение (доверие 15)  [7898A662]
Трек  5  точное извлечение (доверие 15)  [1B1AE72F]
Все треки извлечены точно
Конец отчёта

содержание индексной карты *cue

REM GENRE Rock
REM DATE 1976
REM DISCID 2F0ABF05
REM COMMENT "ExactAudioCopy v0.99pb5"
PERFORMER "Deep Purple"
TITLE "Made In Europe"
FILE "Deep Purple - Made In Europe.flac" WAVE
  TRACK 01 AUDIO
    TITLE "Burn"
    PERFORMER "Deep Purple"
    INDEX 00 00:00:00
    INDEX 01 00:00:33
  TRACK 02 AUDIO
    TITLE "Mistreated"
    PERFORMER "Deep Purple"
    INDEX 00 07:29:48
    INDEX 01 07:32:13
  TRACK 03 AUDIO
    TITLE "Lady Double Dealer"
    PERFORMER "Deep Purple"
    INDEX 00 19:12:10
    INDEX 01 19:14:30
  TRACK 04 AUDIO
    TITLE "You Fool No One"
    PERFORMER "Deep Purple"
    INDEX 00 23:31:38
    INDEX 01 23:33:53
  TRACK 05 AUDIO
    TITLE "Stormbringer"
    PERFORMER "Deep Purple"
    INDEX 00 40:16:00
    INDEX 01 40:18:00

1994 - Come Hell Or High Water | 01:16:52

-Год выпуска: 1994
Remastered: 1997
Лейбл издания: Fuel Records
Страна производитель диска: USA
Номер по каталогу: bea - 51570


01.Highway Star (LIVE) (06:43)
02.Black Night (LIVE) (05:49)
03.A Twist In The Tail (LIVE) (04:24)
04.Perfect Strangers (LIVE) (06:52)
05.Anyone's Daughter (LIVE) (03:53)
06.Child In Time (LIVE) (10:43)
07.Anya (LIVE) (12:06)
08.Lazy (LIVE) (04:18)
09.Space Truckin' (LIVE) (02:27)
10.Woman From Tokyo (LIVE) (01:57)
11.Speed King (LIVE) (07:33)
12.Smoke On The Water (LIVE) (10:10)

лог создания рипа

Exact Audio Copy V0.99 prebeta 5 from 4. May 2009
Отчёт EAC об извлечении, выполненном 18. февраля 2011, 15:49
Deep Purple / Come Hell Or High Water
Дисковод: Optiarc DVD RW AD-7240S   Adapter: 1  ID: 0
Режим чтения                 : Достоверность
Использование точного потока : Да
Отключение кэша аудио        : Да
Использование указателей C2  : Нет
Коррекция смещения при чтении                     : 48
Способность читать области Lead-in и Lead-out     : Нет
Заполнение пропущенных сэмплов тишиной            : Да
Удаление блоков с тишиной в начале и конце        : Нет
При вычислениях CRC использовались нулевые сэмплы : Да
Интерфейс                                         : Встроенный Win32-интерфейс для Win NT/2000
Выходной формат          : Пользовательский кодировщик
Выбранный битрейт        : 768 kBit/s
Качество                 : Высокий
Добавление ID3-тэга      : Нет
Утилита сжатия           : C:\Program Files\Exact Audio Copy\FLAC\FLAC.EXE
Дополнительные параметры : -6 -V -T "ARTIST=%a" -T "TITLE=%t" -T "ALBUM=%g" -T "DATE=%y" -T "TRACKNUMBER=%n" -T "GENRE=%m" -T "COMMENT=%e" %s -o %d
TOC извлечённого CD
     Трек |   Старт  | Длительность | Начальный сектор | Конечный сектор
    ---------------------------------------------------------------------
       1  |  0:00.37 |    6:42.50   |          37      |      30236
       2  |  6:43.12 |    5:48.40   |       30237      |      56376
       3  | 12:31.52 |    4:23.55   |       56377      |      76156
       4  | 16:55.32 |    6:51.70   |       76157      |     107051
       5  | 23:47.27 |    3:52.53   |      107052      |     124504
       6  | 27:40.05 |   10:42.70   |      124505      |     172724
       7  | 38:23.00 |   12:06.00   |      172725      |     227174
       8  | 50:29.00 |    4:17.67   |      227175      |     246516
       9  | 54:46.67 |    2:26.13   |      246517      |     257479
      10  | 57:13.05 |    1:56.50   |      257480      |     266229
      11  | 59:09.55 |    7:32.70   |      266230      |     300199
      12  | 66:42.50 |   10:09.62   |      300200      |     345936
Характеристики диапазона извлечения и сообщения об ошибках
Выбранный диапазон
     Имя файла E:\music\Deep Purple 1 press\Deep Purple Come Hell Or High Water 1994\Deep Purple - Come Hell Or High Water.wav
     Пиковый уровень 100.0 %
     Качество диапазона 100.0 %
     CRC теста D159EE98
     CRC копии D159EE98
     Копирование... OK
Ошибок не произошло
AccurateRip: сводка
Трек  1  точное извлечение (доверие 6)  [A3F26F74]
Трек  2  точное извлечение (доверие 6)  [53B89B90]
Трек  3  точное извлечение (доверие 6)  [E461ECDF]
Трек  4  точное извлечение (доверие 6)  [A436D172]
Трек  5  точное извлечение (доверие 6)  [53A00391]
Трек  6  точное извлечение (доверие 6)  [84674328]
Трек  7  точное извлечение (доверие 6)  [80ADE9D0]
Трек  8  точное извлечение (доверие 6)  [96298BEB]
Трек  9  точное извлечение (доверие 6)  [AEAE81AD]
Трек 10  точное извлечение (доверие 6)  [6259FDD6]
Трек 11  точное извлечение (доверие 6)  [F51014D2]
Трек 12  точное извлечение (доверие 4)  [29C6E90C]
Все треки извлечены точно
Конец отчёта

содержание индексной карты *cue

REM GENRE "Hard Rock"
REM DATE 1994
REM DISCID 8D12040C
REM COMMENT "ExactAudioCopy v0.99pb5"
PERFORMER "Deep Purple"
TITLE "Come Hell Or High Water"
FILE "Deep Purple - Come Hell Or High Water.flac" WAVE
  TRACK 01 AUDIO
    TITLE "Highway Star (LIVE)"
    PERFORMER "Deep Purple"
    INDEX 00 00:00:00
    INDEX 01 00:00:37
  TRACK 02 AUDIO
    TITLE "Black Night (LIVE)"
    PERFORMER "Deep Purple"
    INDEX 01 06:43:12
  TRACK 03 AUDIO
    TITLE "A Twist In The Tail (LIVE)"
    PERFORMER "Deep Purple"
    INDEX 01 12:31:52
  TRACK 04 AUDIO
    TITLE "Perfect Strangers (LIVE)"
    PERFORMER "Deep Purple"
    INDEX 01 16:55:32
  TRACK 05 AUDIO
    TITLE "Anyone's Daughter (LIVE)"
    PERFORMER "Deep Purple"
    INDEX 01 23:47:27
  TRACK 06 AUDIO
    TITLE "Child In Time (LIVE)"
    PERFORMER "Deep Purple"
    INDEX 01 27:40:05
  TRACK 07 AUDIO
    TITLE "Anya (LIVE)"
    PERFORMER "Deep Purple"
    INDEX 01 38:23:00
  TRACK 08 AUDIO
    TITLE "Lazy (LIVE)"
    PERFORMER "Deep Purple"
    INDEX 01 50:29:00
  TRACK 09 AUDIO
    TITLE "Space Truckin' (LIVE)"

1997 - Live At The Olympia '96 (2CD)

Disc 1 | 01:05:36

-Год выпуска: 1996
Remastered: 1997
Лейбл издания: THAMES TALENT LTP
Страна производитель диска: JAPAN
Номер по каталогу: TECW - 35568 - 69


01.Fireball (05:03)
02.Maybe I'm A Leo (05:55)
03.Ted The Mechanic (05:06)
04.Pictures Of Home (05:59)
05.Black Night (07:34)
06.Cascades I'm Not Your Lover (11:08)
07.Sometimes I Feel Like Screaming (07:22)
08.Woman From Tokyo (06:30)
09.No One Came (05:54)
10.The Purpendicular Waltz (05:10)

лог создания рипа

Exact Audio Copy V0.99 prebeta 5 from 4. May 2009
Отчёт EAC об извлечении, выполненном 18. февраля 2011, 14:42
DEEP PURPLE / Live At The Olympia '96 (DISC 1)
Дисковод: Optiarc DVD RW AD-7240S   Adapter: 1  ID: 0
Режим чтения                 : Достоверность
Использование точного потока : Да
Отключение кэша аудио        : Да
Использование указателей C2  : Нет
Коррекция смещения при чтении                     : 48
Способность читать области Lead-in и Lead-out     : Нет
Заполнение пропущенных сэмплов тишиной            : Да
Удаление блоков с тишиной в начале и конце        : Нет
При вычислениях CRC использовались нулевые сэмплы : Да
Интерфейс                                         : Встроенный Win32-интерфейс для Win NT/2000
Выходной формат          : Пользовательский кодировщик
Выбранный битрейт        : 768 kBit/s
Качество                 : Высокий
Добавление ID3-тэга      : Нет
Утилита сжатия           : C:\Program Files\Exact Audio Copy\FLAC\FLAC.EXE
Дополнительные параметры : -6 -V -T "ARTIST=%a" -T "TITLE=%t" -T "ALBUM=%g" -T "DATE=%y" -T "TRACKNUMBER=%n" -T "GENRE=%m" -T "COMMENT=%e" %s -o %d
TOC извлечённого CD
     Трек |   Старт  | Длительность | Начальный сектор | Конечный сектор
    ---------------------------------------------------------------------
       1  |  0:00.00 |    5:02.05   |           0      |      22654
       2  |  5:02.05 |    5:54.23   |       22655      |      49227
       3  | 10:56.28 |    5:05.67   |       49228      |      72169
       4  | 16:02.20 |    5:58.25   |       72170      |      99044
       5  | 22:00.45 |    7:33.40   |       99045      |     133059
       6  | 29:34.10 |   11:07.35   |      133060      |     183119
       7  | 40:41.45 |    7:21.40   |      183120      |     216234
       8  | 48:03.10 |    6:29.43   |      216235      |     245452
       9  | 54:32.53 |    5:53.17   |      245453      |     271944
      10  | 60:25.70 |    5:09.73   |      271945      |     295192
Характеристики диапазона извлечения и сообщения об ошибках
Выбранный диапазон
     Имя файла E:\music\Deep Purple 1 press\Deep Purple - Live At The Olympia '96\Disc1\DEEP PURPLE - Live At The Olympia '96 (DISC 1).wav
     Пиковый уровень 99.3 %
     Качество диапазона 100.0 %
     CRC теста CBE802F7
     CRC копии CBE802F7
     Копирование... OK
Ошибок не произошло
AccurateRip: сводка
Трек  1  нет в базе данных
Трек  2  нет в базе данных
Трек  3  нет в базе данных
Трек  4  нет в базе данных
Трек  5  нет в базе данных
Трек  6  нет в базе данных
Трек  7  нет в базе данных
Трек  8  нет в базе данных
Трек  9  нет в базе данных
Трек 10  нет в базе данных
Ни одного трека нет в базе AccurateRip
Конец отчёта

содержание индексной карты *cue

REM GENRE "Hard Rock"
REM DATE 1997
REM DISCID 920F5F0A
REM COMMENT "ExactAudioCopy v0.99pb5"
PERFORMER "DEEP PURPLE"
TITLE "Live At The Olympia '96 (DISC 1)"
FILE "DEEP PURPLE - Live At The Olympia '96 (DISC 1).flac" WAVE
  TRACK 01 AUDIO
    TITLE "Fireball"
    PERFORMER "DEEP PURPLE"
    INDEX 01 00:00:00
  TRACK 02 AUDIO
    TITLE "Maybe I'm A Leo"
    PERFORMER "DEEP PURPLE"
    INDEX 01 05:02:05
  TRACK 03 AUDIO
    TITLE "Ted The Mechanic"
    PERFORMER "DEEP PURPLE"
    INDEX 01 10:56:28
  TRACK 04 AUDIO
    TITLE "Pictures Of Home"
    PERFORMER "DEEP PURPLE"
    INDEX 01 16:02:20
  TRACK 05 AUDIO
    TITLE "Black Night"
    PERFORMER "DEEP PURPLE"
    INDEX 01 22:00:45
  TRACK 06 AUDIO
    TITLE "Cascades I'm Not Your Lover"
    PERFORMER "DEEP PURPLE"
    INDEX 01 29:34:10
  TRACK 07 AUDIO
    TITLE "Sometimes I Feel Like Screaming"
    PERFORMER "DEEP PURPLE"
    INDEX 01 40:41:45
  TRACK 08 AUDIO
    TITLE "Woman From Tokyo"
    PERFORMER "DEEP PURPLE"
    INDEX 01 48:03:10
  TRACK 09 AUDIO
    TITLE "No One Came"
    PERFORMER "DEEP PURPLE"

DISC 2 | 00:57:05

[img][thumb]http://i69.fastpic.ru/big/2015/0528/c8/524dd06d1d17...ng[/thumb][/img] -Год выпуска: 1996
Remastered: 1997
Лейбл издания: THAMES TALENT LTP
Страна производитель диска: JAPAN
Номер по каталогу: TECW - 35568 - 69


01.Rosa's Cantina (06:19)
02.Smoke On The Water (09:25)
03.When A Blind Man Cries (07:18)
04.Speed King (11:46)
05.Perfect Strangers (06:44)
06.Hey Cisco (07:31)
07.Highway Star (08:04)

лог создания рипа

Exact Audio Copy V0.99 prebeta 5 from 4. May 2009
Отчёт EAC об извлечении, выполненном 18. февраля 2011, 15:13
DEEP PURPLE / Live At The Olympia '96 (DISC 2)
Дисковод: Optiarc DVD RW AD-7240S   Adapter: 1  ID: 0
Режим чтения                 : Достоверность
Использование точного потока : Да
Отключение кэша аудио        : Да
Использование указателей C2  : Нет
Коррекция смещения при чтении                     : 48
Способность читать области Lead-in и Lead-out     : Нет
Заполнение пропущенных сэмплов тишиной            : Да
Удаление блоков с тишиной в начале и конце        : Нет
При вычислениях CRC использовались нулевые сэмплы : Да
Интерфейс                                         : Встроенный Win32-интерфейс для Win NT/2000
Выходной формат          : Пользовательский кодировщик
Выбранный битрейт        : 768 kBit/s
Качество                 : Высокий
Добавление ID3-тэга      : Нет
Утилита сжатия           : C:\Program Files\Exact Audio Copy\FLAC\FLAC.EXE
Дополнительные параметры : -6 -V -T "ARTIST=%a" -T "TITLE=%t" -T "ALBUM=%g" -T "DATE=%y" -T "TRACKNUMBER=%n" -T "GENRE=%m" -T "COMMENT=%e" %s -o %d
TOC извлечённого CD
     Трек |   Старт  | Длительность | Начальный сектор | Конечный сектор
    ---------------------------------------------------------------------
       1  |  0:00.00 |    6:18.70   |           0      |      28419
       2  |  6:18.70 |    9:24.65   |       28420      |      70784
       3  | 15:43.60 |    7:17.47   |       70785      |     103606
       4  | 23:01.32 |   11:45.43   |      103607      |     156524
       5  | 34:47.00 |    6:43.20   |      156525      |     186769
       6  | 41:30.20 |    7:30.37   |      186770      |     220556
       7  | 49:00.57 |    8:03.48   |      220557      |     256829
Характеристики диапазона извлечения и сообщения об ошибках
Выбранный диапазон
     Имя файла E:\music\Deep Purple 1 press\Deep Purple - Live At The Olympia '96\Disc2\DEEP PURPLE - Live At The Olympia '96 (DISC 2).wav
     Пиковый уровень 99.3 %
     Качество диапазона 100.0 %
     CRC теста 2C0D9BA0
     CRC копии 2C0D9BA0
     Копирование... OK
Ошибок не произошло
AccurateRip: сводка
Трек  1  нет в базе данных
Трек  2  нет в базе данных
Трек  3  нет в базе данных
Трек  4  нет в базе данных
Трек  5  нет в базе данных
Трек  6  нет в базе данных
Трек  7  нет в базе данных
Ни одного трека нет в базе AccurateRip
Конец отчёта

содержание индексной карты *cue

REM GENRE "Hard Rock"
REM DATE 1997
REM DISCID 630D6007
REM COMMENT "ExactAudioCopy v0.99pb5"
PERFORMER "DEEP PURPLE"
TITLE "Live At The Olympia '96 (DISC 2)"
FILE "DEEP PURPLE - Live At The Olympia '96 (DISC 2).flac" WAVE
  TRACK 01 AUDIO
    TITLE "Rosa's Cantina"
    PERFORMER "DEEP PURPLE"
    INDEX 01 00:00:00
  TRACK 02 AUDIO
    TITLE "Smoke On The Water"
    PERFORMER "DEEP PURPLE"
    INDEX 01 06:18:70
  TRACK 03 AUDIO
    TITLE "When A Blind Man Cries"
    PERFORMER "DEEP PURPLE"
    INDEX 01 15:43:60
  TRACK 04 AUDIO
    TITLE "Speed King"
    PERFORMER "DEEP PURPLE"
    INDEX 01 23:01:32
  TRACK 05 AUDIO
    TITLE "Perfect Strangers"
    PERFORMER "DEEP PURPLE"
    INDEX 01 34:47:00
  TRACK 06 AUDIO
    TITLE "Hey Cisco"
    PERFORMER "DEEP PURPLE"
    INDEX 01 41:30:20
  TRACK 07 AUDIO
    TITLE "Highway Star"
    PERFORMER "DEEP PURPLE"
    INDEX 01 49:00:57
--Не забываем говорить
[Профиль] [ЛС]
Показать сообщения:    

Текущее время: Сегодня 23:28

Часовой пояс: GMT



Вы не можете начинать темы
Вы не можете отвечать на сообщения
Вы не можете редактировать свои сообщения
Вы не можете удалять свои сообщения
Вы не можете голосовать в опросах
Вы не можете прикреплять файлы к сообщениям
Вы не можете скачивать файлы