(Hard Rock)Deep Purple - Greatest Hits (2008) Steel Box Collection [APE(image+cue),Lossless]

 
Автор Сообщение

sergej644 ®

Пол:

Стаж: 4 года 11 месяцев

Сообщений: 6041

Откуда: Soviet Union



Награды: Нет

Торрент-статистика

Создавать темы 13-Окт-2014 16:12

[Цитировать]

-Deep Purple - Greatest Hits (2008)- Год: 2008
Жанр: Hard Rock
Продолжительность: 01:15:03
Кодек: APE
Битрейт: Lossless
Треклист:
1. Smoke On The Water (Live)
2. Highway Star (Live)
3. Child In Time (Live)
4. The Battle Rages On (Live)
5. Woman From Tokyo (Live)
6. Love Conquers All
7. King Of Dreams (Album Version)
8. The Aviator
9. Anya (Live)
10. Perfect Strangers (Live)
11. Fortuneteller

Отчёт ЕАС:

Exact Audio Copy V0.99 prebeta 4 from 23. January 2008
Отчёт EAC об извлечении, выполненном 1. февраля 2009, 19:00
Deep Purple / Hit Collection
Дисковод: TSSTcorpCDDVDW SH-S203D Adapter: 2 ID: 2
Режим чтения : Достоверность
Использование точного потока : Да
Отключение кэша аудио : Да
Использование указателей C2 : Нет
Коррекция смещения при чтении : 6
Способность читать области Lead-in и Lead-out : Нет
Заполнение пропущенных сэмплов тишиной : Да
Удаление блоков с тишиной в начале и конце : Нет
При вычислениях CRC использовались нулевые сэмплы : Да
Интерфейс : Встроенный Win32-интерфейс для Win NT/2000
Выходной формат : Внутренние WAV-операции
Формат сэмплов : 44.100 Гц; 16 бит; стерео
TOC извлечённого CD
Трек | Старт | Длительность | Начальный сектор | Конечный сектор
---------------------------------------------------------------------
1 | 0:00.00 | 10:10.70 | 0 | 45819
2 | 10:10.70 | 6:43.06 | 45820 | 76050
3 | 16:54.01 | 10:43.61 | 76051 | 124336
4 | 27:37.62 | 5:56.11 | 124337 | 151047
5 | 33:33.73 | 2:10.14 | 151048 | 160811
6 | 35:44.12 | 3:45.41 | 160812 | 177727
7 | 39:29.53 | 5:26.55 | 177728 | 202232
8 | 44:56.33 | 5:20.58 | 202233 | 226290
9 | 50:17.16 | 12:02.16 | 226291 | 280456
10 | 62:19.32 | 6:53.54 | 280457 | 311485
11 | 69:13.11 | 5:49.38 | 311486 | 337698
Характеристики диапазона извлечения и сообщения об ошибках
Выбранный диапазон
Имя файла D:\_OTHER_\Ape\Deep Purple\Deep Purple - Hit Collection.wav
Пиковый уровень 100.0 %
Качество диапазона 100.0 %
CRC теста 8CDD049C
CRC копии 8CDD049C
Копирование... OK
Ошибок не произошло
AccurateRip: сводка
Трек 1 нет в базе данных
Трек 2 нет в базе данных
Трек 3 нет в базе данных
Трек 4 нет в базе данных
Трек 5 нет в базе данных
Трек 6 нет в базе данных
Трек 7 нет в базе данных
Трек 8 нет в базе данных
Трек 9 нет в базе данных
Трек 10 нет в базе данных
Трек 11 нет в базе данных
Ни одного трека нет в базе AccurateRip
Конец отчёта

Отчёт auCDtect Task manager:

DON'T MODIFY THIS FILE
-----------------------
PERFORMER: auCDtect Task Manager, ver. 1.6.0 RC1 build 1.6.0.1
Copyright (c) 2008-2010 y-soft. All rights reserved
http://y-soft.org
ANALYZER: auCDtect: CD records authenticity detector, version 0.8.2
Copyright (c) 2004 Oleg Berngardt. All rights reserved.
Copyright (c) 2004 Alexander Djourik. All rights reserved.
FILE: Deep Purple - Hit Collection.ape
  Size: 540656220 Hash: 338D3521D0F27CD6C891DC2453DBB5D1 Accuracy: -m0
  Conclusion: CDDA 100%
  Signature: 1F283A9D332350DACDFFE9593244BAA9F4746099
--
[Профиль] [ЛС]
Показать сообщения:    

Текущее время: Сегодня 14:48

Часовой пояс: GMT



Вы не можете начинать темы
Вы не можете отвечать на сообщения
Вы не можете редактировать свои сообщения
Вы не можете удалять свои сообщения
Вы не можете голосовать в опросах
Вы не можете прикреплять файлы к сообщениям
Вы не можете скачивать файлы