Deep Purple - From the Setting Sun... in Wacken 2013 [2015, Hard Rock, BDRip 1080p]

 
Автор Сообщение

sergej644 ®

Пол:

Стаж: 4 года 11 месяцев

Сообщений: 6035

Откуда: Soviet Union



Награды: Нет

Торрент-статистика

Создавать темы 20-Сен-2015 20:19

[Цитировать]

Deep Purple - From the Setting Sun... in Wacken 2013
Жанр: Hard Rock
Продолжительность: 1:35:29
Год выпуска: 2015
Описание:
Концерт записан во время мировое тура Wacken Open Air на 1 августа 2013 года.
Треклист:
01. Highway Star
02. Into The Fire
03. Hard Lovin' Man
04. Vincent Price
05. Strange Kind of Woman
06. Contact Lost
07. The Well-Dressed Guitar
08. Hell To Pay
09. Lazy
10. Above And Beyond
11. No One Came
12. Don Airey's Solo
13. Perfect Strangers
14. Space Truckin'
15. Smoke On The Water feat.Uli Jon Roth
16. Green Onions / Hush
17. Black Night
Качество: BDRip 1080p
Контейнер: MKV
Видео кодек: H.264
Аудио кодек: DTS
Видео: AVC, 1920x1080 (16:9), 23.976 fps, 9 060 Kbps
Аудио: DTS, 48.0 KHz, 6 ch, 768 Kbps

MediaInfo

GeneralUnique ID : 172505892271721547983104629744951804062 (0x81C76D2555B93B9CA40EED4256A6C09E)Complete name : H:\Deep.Purple.From.the.Setting.Sun.in.Wacken.2015.1080p.MBLURAY.x264-DEV0\Deep.Purple.From.The.setting.Sun.In.Wacken.2015.1080p.mkvFormat : MatroskaFormat version : Version 4 / Version 2File size : 6.56 GiBDuration : 1h 35mnOverall bit rate : 9 830 KbpsEncoded date : UTC 2015-09-15 17:00:51Writing application : mkvmerge v8.2.0 ('World of Adventure') 64bitWriting library : libebml v1.3.1 + libmatroska v1.4.2DURATION : 01:35:29.504000000NUMBER_OF_FRAMES : 537141NUMBER_OF_BYTES : 550032384_STATISTICS_WRITING_APP : mkvmerge v8.2.0 ('World of Adventure') 64bit_STATISTICS_WRITING_DATE_UTC : 2015-09-15 17:00:51_STATISTICS_TAGS : BPS DURATION NUMBER_OF_FRAMES NUMBER_OF_BYTES
VideoID : 1Format : AVCFormat/Info : Advanced Video CodecFormat profile : High@L4.1Format settings, CABAC : YesFormat settings, ReFrames : 4 framesCodec ID : V_MPEG4/ISO/AVCDuration : 1h 35mnBit rate : 9 060 KbpsWidth : 1 920 pixelsHeight : 1 080 pixelsDisplay aspect ratio : 16:9Frame rate mode : ConstantFrame rate : 23.976 fpsColor space : YUVChroma subsampling : 4:2:0Bit depth : 8 bitsScan type : ProgressiveBits/(Pixel*Frame) : 0.182Stream size : 5.91 GiB (90%)Writing library : x264 core 148 r2597 e86f3a1Encoding settings : cabac=1 / ref=4 / deblock=1:-1:-1 / analyse=0x3:0x113 / me=umh / subme=8 / psy=1 / psy_rd=1.00:0.15 / mixed_ref=1 / me_range=16 / chroma_me=1 / trellis=1 / 8x8dct=1 / cqm=0 / deadzone=21,11 / fast_pskip=0 / chroma_qp_offset=-3 / threads=6 / lookahead_threads=1 / sliced_threads=0 / nr=0 / decimate=1 / interlaced=0 / bluray_compat=0 / constrained_intra=0 / bframes=3 / b_pyramid=2 / b_adapt=2 / b_bias=0 / direct=3 / weightb=1 / open_gop=0 / weightp=2 / keyint=250 / keyint_min=23 / scenecut=40 / intra_refresh=0 / rc_lookahead=50 / rc=2pass / mbtree=1 / bitrate=9060 / ratetol=1.0 / qcomp=0.60 / qpmin=0 / qpmax=69 / qpstep=4 / cplxblur=20.0 / qblur=0.5 / ip_ratio=1.40 / aq=1:1.00Default : YesForced : NoDURATION : 01:35:29.474000000NUMBER_OF_FRAMES : 137370NUMBER_OF_BYTES : 6488539667_STATISTICS_WRITING_APP : mkvmerge v8.2.0 ('World of Adventure') 64bit_STATISTICS_WRITING_DATE_UTC : 2015-09-15 17:00:51_STATISTICS_TAGS : BPS DURATION NUMBER_OF_FRAMES NUMBER_OF_BYTES
AudioID : 2Format : DTSFormat/Info : Digital Theater SystemsMode : 16Format settings, Endianness : BigCodec ID : A_DTSDuration : 1h 35mnBit rate mode : ConstantBit rate : 768 KbpsChannel(s) : 6 channelsChannel positions : Front: L C R, Side: L R, LFESampling rate : 48.0 KHzBit depth : 24 bitsCompression mode : LossyStream size : 525 MiB (8%)Language : EnglishDefault : YesForced : No
Menu00:00:00.000 : en:00:00:00.00000:01:57.367 : en:00:01:57.36700:08:26.881 : en:00:08:26.88100:11:52.921 : en:00:11:52.92100:18:27.940 : en:00:18:27.94000:22:52.955 : en:00:22:52.95500:28:41.803 : en:00:28:41.80300:31:37.729 : en:00:31:37.72900:34:16.137 : en:00:34:16.13700:39:19.440 : en:00:39:19.44000:47:16.584 : en:00:47:16.58400:52:25.476 : en:00:52:25.47600:57:43.502 : en:00:57:43.50201:00:42.138 : en:01:00:42.13801:06:46.586 : en:01:06:46.58601:11:40.463 : en:01:11:40.46301:13:12.179 : en:01:13:12.17901:21:13.744 : en:01:21:13.74401:28:29.054 : en:01:28:29.054
[Профиль] [ЛС]
Показать сообщения:    

Текущее время: Сегодня 09:57

Часовой пояс: GMT



Вы не можете начинать темы
Вы не можете отвечать на сообщения
Вы не можете редактировать свои сообщения
Вы не можете удалять свои сообщения
Вы не можете голосовать в опросах
Вы не можете прикреплять файлы к сообщениям
Вы не можете скачивать файлы