Deep Purple ★ From the Setting Sun... (in Wacken) (2015) BDRip 1080p от Ash61 | 3D-Video | halfOU

 
Автор Сообщение

достали все ®

Пол:

Стаж: 1 год 8 месяцев

Сообщений: 6565



Награды: 12 (Подробнее)

Mega Seeder 5 (Количество: 1) Top Releaser 2 (Количество: 1) Mega Releaser 1 (Количество: 1)
Торрент-статистика

Создавать темы 16-Окт-2015 04:23

[Цитировать]

-Deep Purple ★ From the Setting Sun... (in Wacken)- Год выпуска: 2015
Страна: Германия
Студия:
Жанр: Музыка, Hard Rock
Продолжительность: 01:35:29
Перевод: Не требуется-Состав группы:

Ian Gillan - Vocal
Roger Glover - Bass
Ian Paice - Drums
Steve Morse - Guitar
Don Airey - Keyboards
-Описание: Deep Purple: From the Setting Sun (in Wacken) был снят на девять HD камер и отмечаем, что в первый раз Deep Purple выпустил 3D-фильм. Аудио для фильма смешивали в Гамбурге Эйке Фриз и Алекс Дитц под наблюдением Роджера Гловера.
Снято и записано в ходе мирового турне группы =NOW What?!= на фестивале Wacken Open Air (Германия) 1-го августа 2013г.

Трек-лист

1. Intro
2. Highway Star
3. Into the Fire
4. Hard Lovin' Man
5. Vincent Price
6. Strange Kind of Woman
7. Contact Lost
8. The Well-Dressed Guitar
9. Hell to Pay
10. Lazy
11. Above and Beyond
12. No One Came
13. Don Airey's Solo
14. Perfect Strangers
15. Space Truckin'
16. Steve Morse and Uli Jon Roth - Improvisation
17. Smoke on the Water (featuring Uli Jon Roth)
18. Green Onions / Hush
19. Black Night

Состав группы 1968г - 2015г


За исходный BD 3D спасибо meloman67!
-Качество: BDRip (by Ash61)
Контейнер: MKV
Формат 3D: Half OverUnder / Вертикальная анаморфная стереопара
Порядок ракурсов: левый ракурс первый
-Видео: AVC / 23,976 fps / 1920х1080p / 16.8 Mbps
Аудио: Английский / AC3 / 48 KHz / 5.1 ch / 640 Kbps (Original - BD 3D)
Отдельным файлом - Английский / DTS-HD MA / 5.1 / 48 kHz / 2676 kbps / 16-bit (DTS Core: 5.1 / 48 kHz / 768 kbps / 16-bit / DN -4dB)
Субтитры (SRT):
Вшитые (softsub) - English Форсированные (Названия песен) [Color]
Внешние (UTF-8) - English Форсированные (Названия песен) [Color]

MediaInfo

General
Unique ID : 205186076109989557375117883453390761102 (0x9A5D669BD26D51E99212F9A4AEDCAC8E)
Complete name : E:DeepPurple.FromTheSettingSun(2015)3D-halfOU(Ash61)DeepPurple.FromTheSettingSun(2015)3D-halfOU(Ash61).mkv
Format : Matroska
Format version : Version 2
File size : 11.8 GiB
Duration : 1h 35mn
Overall bit rate : 17.7 Mbps
Movie name : Deep Purple ★ From the Setting Sun... in Wacken 2013 (2015) в 3Д
Encoded date : UTC 2015-10-14 19:56:02
Writing application : mkvmerge v5.8.0 ('No Sleep / Pillow') built on Sep 2 2012 15:37:04
Writing library : libebml v1.2.3 + libmatroska v1.3.0
Video
ID : 1
Format : AVC
Format/Info : Advanced Video Codec
Format profile : High@L4.1
Format settings, CABAC : Yes
Format settings, ReFrames : 4 frames
Codec ID : V_MPEG4/ISO/AVC
Duration : 1h 35mn
Bit rate : 16.8 Mbps
Width : 1 920 pixels
Height : 1 080 pixels
Display aspect ratio : 16:9
Frame rate mode : Constant
Frame rate : 23.976 fps
Color space : YUV
Chroma subsampling : 4:2:0
Bit depth : 8 bits
Scan type : Progressive
Bits/(Pixel*Frame) : 0.337
Stream size : 11.2 GiB (94%)
Title : BDRip by Ash61
Writing library : x264 core 146 r2538 121396c
Encoding settings : cabac=1 / ref=4 / deblock=1:-3:-3 / analyse=0x3:0x113 / me=umh / subme=10 / psy=1 / psy_rd=1.00:0.00 / mixed_ref=1 / me_range=32 / chroma_me=1 / trellis=2 / 8x8dct=1 / cqm=0 / deadzone=21,11 / fast_pskip=1 / chroma_qp_offset=-2 / threads=12 / lookahead_threads=3 / sliced_threads=0 / nr=0 / decimate=1 / interlaced=0 / bluray_compat=0 / constrained_intra=0 / bframes=10 / b_pyramid=2 / b_adapt=2 / b_bias=0 / direct=3 / weightb=1 / open_gop=0 / weightp=2 / keyint=250 / keyint_min=23 / scenecut=40 / intra_refresh=0 / rc_lookahead=60 / rc=crf / mbtree=1 / crf=16.0 / qcomp=0.70 / qpmin=0 / qpmax=69 / qpstep=4 / vbv_maxrate=40000 / vbv_bufsize=30000 / crf_max=0.0 / nal_hrd=none / filler=0 / frame-packing=4 / ip_ratio=1.40 / aq=1:0.70
Language : English
Default : Yes
Forced : No
Audio
ID : 2
Format : AC-3
Format/Info : Audio Coding 3
Mode extension : CM (complete main)
Format settings, Endianness : Big
Codec ID : A_AC3
Duration : 1h 35mn
Bit rate mode : Constant
Bit rate : 640 Kbps
Channel(s) : 6 channels
Channel positions : Front: L C R, Side: L R, LFE
Sampling rate : 48.0 KHz
Bit depth : 16 bits
Compression mode : Lossy
Stream size : 437 MiB (4%)
Title : Original - BD 3D
Language : English
Default : Yes
Forced : No
Text
ID : 3
Format : UTF-8
Codec ID : S_TEXT/UTF8
Codec ID/Info : UTF-8 Plain Text
Title : Названия песен
Language : English
Default : Yes
Forced : No
Menu
00:00:00.000 : : 1. Intro
00:01:57.367 : : 2. Highway Star
00:08:26.881 : : 3. Into the Fire
00:11:52.921 : : 4. Hard Lovin' Man
00:18:27.940 : : 5. Vincent Price
00:22:52.955 : : 6. Strange Kind of Woman
00:28:41.803 : : 7. Contact Lost
00:31:37.729 : : 8. The Well-Dressed Guitar
00:34:16.137 : : 9. Hell to Pay
00:39:19.440 : : 10. Lazy
00:47:16.584 : : 11. Above and Beyond
00:52:25.476 : : 12. No One Came
00:57:43.502 : : 13. Don Airey's Solo
01:00:42.138 : : 14. Perfect Strangers
01:06:46.586 : : 15. Space Truckin'
01:11:40.463 : : 16. Steve Morse and Uli Jon Roth - Improvisation
01:13:12.179 : : 17. Smoke on the Water (featuring Uli Jon Roth)
01:21:13.744 : : 18. Green Onions / Hush
01:28:29.054 : : 19. Black Night

Скриншоты

Для оценки 3Д - Анимированные скрины










--
[Профиль] [ЛС]
Показать сообщения:    

Текущее время: Сегодня 12:33

Часовой пояс: GMT



Вы не можете начинать темы
Вы не можете отвечать на сообщения
Вы не можете редактировать свои сообщения
Вы не можете удалять свои сообщения
Вы не можете голосовать в опросах
Вы не можете прикреплять файлы к сообщениям
Вы не можете скачивать файлы