(Rock, Hard Rock)Deep Purple - Fireball - 1971 (25th Anniversary Edition - 1996) [Ape, image+.cue, lossless]

 
Автор Сообщение

sergej644 ®

Пол:

Стаж: 4 года 11 месяцев

Сообщений: 6045

Откуда: Soviet Union



Награды: Нет

Торрент-статистика

Создавать темы 25-Июл-2016 20:15

[Цитировать]

-Deep Purple - Fireball - 1971--
Год издания: 1971
Год переиздания: 1996
Страна: UK
Жанр: Rock, Hard Rock- Продолжительность: 01:18:48
Лейбл издания: Parlophone Rеcords
Страна-выпуска диска: UK
Номер по каталогу: 724385371127- Формат: Ape
Битрейт аудио: Lossless
Тип рипа: image +.cue
Наличие сканов в содержимом раздачи: да
-

Трэклист


01. Fireball (3:25)
02. No No No (6:54)
03. Demon's Eye (5:21)
04. Anyone's Daughter (4:43)
05. The Mule (5:21)
06. Fools (8:19)
07. No One Came (6:26)
Bonus tracks:
08. Strange Kind Of Woman a-side remix 96 (4:06)
09. I'm Alone b-side (3:07)
10. Freedom album out-take (3:35)
11. Slow Train album out-take (5:36)
12. Demon's Eye remix 96 (6:10)
13. The Noise Abatement Society Tapes Midnight In Moscow, Robin Hood, William Tell (4:16)
14. Fireball take I (instrumental) (4:08)
15. Backwards Piano (0:55)
16. No One Came remix 96 (6:24)

Состав:

Ian Gillan - Vocals
Ritchie Blackmore - Guitars
Jon Lord - organ, piano
Roger Glover - Bass
Ian Paice - Drums
-

Лог создания рипа

Exact Audio Copy V0.99 prebeta 5 from 4. May 2009
EAC extraction logfile from 15. April 2016, 8:47
Deep Purple / Fireball
Used drive  : ASUS    DRW-20B1ST   Adapter: 3  ID: 0
Read mode               : Secure
Utilize accurate stream : Yes
Defeat audio cache      : Yes
Make use of C2 pointers : No
Read offset correction                      : 6
Overread into Lead-In and Lead-Out          : No
Fill up missing offset samples with silence : Yes
Delete leading and trailing silent blocks   : No
Null samples used in CRC calculations       : Yes
Used interface                              : Native Win32 interface for Win NT & 2000
Used output format              : Monkey's Audio Lossless Encoder
Selected bitrate                : High Lossless Compression
Quality                         : High
Add ID3 tag                     : No
Command line compressor         : C:\Program Files (x86)\Monkey's Audio\MAC.exe
Additional command line options :  %source% %dest% -c3000
Use compression offset          : 0
TOC of the extracted CD
     Track |   Start  |  Length  | Start sector | End sector
    ---------------------------------------------------------
        1  |  0:00.00 |  3:25.10 |         0    |    15384
        2  |  3:25.10 |  6:53.72 |     15385    |    46431
        3  | 10:19.07 |  5:21.25 |     46432    |    70531
        4  | 15:40.32 |  4:43.15 |     70532    |    91771
        5  | 20:23.47 |  5:21.30 |     91772    |   115876
        6  | 25:45.02 |  8:18.73 |    115877    |   153299
        7  | 34:04.00 |  6:26.32 |    153300    |   182281
        8  | 40:30.32 |  4:05.50 |    182282    |   200706
        9  | 44:36.07 |  3:07.33 |    200707    |   214764
       10  | 47:43.40 |  3:34.57 |    214765    |   230871
       11  | 51:18.22 |  5:35.60 |    230872    |   256056
       12  | 56:54.07 |  6:10.28 |    256057    |   283834
       13  | 63:04.35 |  4:15.72 |    283835    |   303031
       14  | 67:20.32 |  4:07.63 |    303032    |   321619
       15  | 71:28.20 |  0:54.57 |    321620    |   325726
       16  | 72:23.02 |  6:23.35 |    325727    |   354486
Range status and errors
Selected range
     Filename E:\Deep Purple - Fireball.wav
     Peak level 94.4 %
     Range quality 100.0 %
     Copy CRC 48B1238A
     Copy OK
No errors occurred
AccurateRip summary
Track  1  cannot be verified as accurate (confidence 150)  [F2165F17], AccurateRip returned [4A3B9583]
Track  2  cannot be verified as accurate (confidence 152)  [1421F919], AccurateRip returned [D9AFE94E]
Track  3  cannot be verified as accurate (confidence 152)  [BE1F876C], AccurateRip returned [72294F17]
Track  4  cannot be verified as accurate (confidence 151)  [E5AC5BA6], AccurateRip returned [DCF9FF6D]
Track  5  cannot be verified as accurate (confidence 151)  [04D3C2AF], AccurateRip returned [F40CDC8D]
Track  6  cannot be verified as accurate (confidence 148)  [7A6CE9B8], AccurateRip returned [67B629A4]
Track  7  cannot be verified as accurate (confidence 149)  [C711029B], AccurateRip returned [F34030C0]
Track  8  cannot be verified as accurate (confidence 147)  [A34E2915], AccurateRip returned [674C160D]
Track  9  cannot be verified as accurate (confidence 147)  [28E61280], AccurateRip returned [5CF28347]
Track 10  cannot be verified as accurate (confidence 146)  [99F97294], AccurateRip returned [7BD254DF]
Track 11  cannot be verified as accurate (confidence 143)  [4788E86B], AccurateRip returned [95A742CD]
Track 12  cannot be verified as accurate (confidence 143)  [72A4480D], AccurateRip returned [A7799A42]
Track 13  cannot be verified as accurate (confidence 144)  [7F17DD3D], AccurateRip returned [7DD34D05]
Track 14  cannot be verified as accurate (confidence 139)  [DA91B3DA], AccurateRip returned [19DB6B63]
Track 15  cannot be verified as accurate (confidence 147)  [6CFAC9A0], AccurateRip returned [282452C0]
Track 16  cannot be verified as accurate (confidence 140)  [36023830], AccurateRip returned [FD9D9566]
No tracks could be verified as accurate
You may have a different pressing from the one(s) in the database
End of status report

Индексная карта (non-compilant .cue)

REM GENRE Rock
REM DATE 1971
REM DISCID DB127610
REM COMMENT "ExactAudioCopy v0.99pb5"
PERFORMER "Deep Purple"
TITLE "Fireball"
FILE "Deep Purple - Fireball.ape" WAVE
  TRACK 01 AUDIO
    TITLE Fireball
    PERFORMER "Deep Purple"
    INDEX 01 00:00:00
  TRACK 02 AUDIO
    TITLE "No No No"
    PERFORMER "Deep Purple"
    INDEX 00 03:23:32
    INDEX 01 03:25:10
  TRACK 03 AUDIO
    TITLE "Demon's Eye"
    PERFORMER "Deep Purple"
    INDEX 00 10:17:65
    INDEX 01 10:19:07
  TRACK 04 AUDIO
    TITLE "Anyone's Daughter"
    PERFORMER "Deep Purple"
    INDEX 00 15:38:37
    INDEX 01 15:40:32
  TRACK 05 AUDIO
    TITLE "The Mule"
    PERFORMER "Deep Purple"
    INDEX 00 20:21:72
    INDEX 01 20:23:47
  TRACK 06 AUDIO
    TITLE Fools
    PERFORMER "Deep Purple"
    INDEX 00 25:43:22
    INDEX 01 25:45:02
  TRACK 07 AUDIO
    TITLE "No One Came"
    PERFORMER "Deep Purple"
    INDEX 00 34:02:30
    INDEX 01 34:04:00
  TRACK 08 AUDIO
    TITLE "Strange Kind Of Woman a-side remix 96"
    PERFORMER "Deep Purple"
    INDEX 00 40:29:02
    INDEX 01 40:30:32
  TRACK 09 AUDIO
    TITLE "I'm Alone b-side"
    PERFORMER "Deep Purple"
    INDEX 00 44:34:57
    INDEX 01 44:36:07
  TRACK 10 AUDIO
    TITLE "Freedom album out-take"
    PERFORMER "Deep Purple"
    INDEX 00 47:41:47
    INDEX 01 47:43:40
  TRACK 11 AUDIO
    TITLE "Slow Train album out-take"
    PERFORMER "Deep Purple"
    INDEX 00 51:15:72
    INDEX 01 51:18:22
  TRACK 12 AUDIO
    TITLE "Demon's Eye remix 96"
    PERFORMER "Deep Purple"
    INDEX 00 56:51:27
    INDEX 01 56:54:07
  TRACK 13 AUDIO
    TITLE "The Noise Abatement Society Tapes Midnight In Moscow, Robin Hood, William Tell"
    PERFORMER "Deep Purple"
    INDEX 00 63:03:15
    INDEX 01 63:04:35
  TRACK 14 AUDIO
    TITLE "Fireball take I (instrumental)"
    PERFORMER "Deep Purple"
    INDEX 00 67:19:35
    INDEX 01 67:20:32
  TRACK 15 AUDIO
    TITLE "Backwards Piano"
    PERFORMER "Deep Purple"
    INDEX 00 71:27:15
    INDEX 01 71:28:20
  TRACK 16 AUDIO
    TITLE "No One Came remix 96"
    PERFORMER "Deep Purple"
    INDEX 00 72:22:32
    INDEX 01 72:23:02
--
[Профиль] [ЛС]
Показать сообщения:    

Текущее время: Сегодня 22:23

Часовой пояс: GMT



Вы не можете начинать темы
Вы не можете отвечать на сообщения
Вы не можете редактировать свои сообщения
Вы не можете удалять свои сообщения
Вы не можете голосовать в опросах
Вы не можете прикреплять файлы к сообщениям
Вы не можете скачивать файлы