(Rock)Deep Purple - Deep Purple (1969) (Japanese Remastered 2014) 2014, [FLAC,(image+cue), Losslless]

 
Автор Сообщение

sergej644 ®

Пол:

Стаж: 4 года 11 месяцев

Сообщений: 6046

Откуда: Soviet Union



Награды: Нет

Торрент-статистика

Создавать темы 02-Окт-2014 13:12

[Цитировать]

--Deep Purple - Deep Purple (1969) (Japanese Remastered 2014) Страна: UK
Страна производитель диска: JAPAN
Год выпуска: 1969
Год переиздания: 2014
Лейбл: Victor
Номер по каталогу: VICP - 75128
Жанр: Rock
Формат: FLAC
тип рипа: (Image + *cue)
Битрейт аудио: Lossless
Продолжительность: 00:59:32
Полиграфия: присутствует

треклист

01. Chasing Shadows (05:35)
02. Blind (05:26)
03. Lalena (05:05)
04. Fault Line (01:46)
05. The Painter (03:51)
06. Why Didn't Rosemary? (05:04)
07. Bird Has Flown (05:35)
08. April (12:10)
09. Bird Has Flown (alternative A-side version) (02:54)
10. Emmaretta (studio B-side) (03:00)
11. Emmaretta (BBC Top Gear Session 14.01.1969) (03:09)
12. Lalena (BBC radio session 24.06.1969) (03:33)
13. The Painter (BBC radio session 24.06.1969) (02:18)
-Дополнительная информация:

лог создания рипа

Exact Audio Copy V1.0 beta 3 from 29. August 2011
EAC extraction logfile from 5. March 2014, 0:02
Deep Purple / Deep Purple
Used drive  : ATAPI   iHAS124   B   Adapter: 1  ID: 0
Read mode               : Secure
Utilize accurate stream : Yes
Defeat audio cache      : Yes
Make use of C2 pointers : No
Read offset correction                      : 6
Overread into Lead-In and Lead-Out          : No
Fill up missing offset samples with silence : Yes
Delete leading and trailing silent blocks   : No
Null samples used in CRC calculations       : Yes
Used interface                              : Installed external ASPI interface
Used output format              : User Defined Encoder
Selected bitrate                : 128 kBit/s
Quality                         : High
Add ID3 tag                     : Yes
Command line compressor         : C:\Program Files (x86)\Exact Audio Copy\Flac\flac.exe
Additional command line options : -V -8 %source%
TOC of the extracted CD
     Track |   Start  |  Length  | Start sector | End sector
    ---------------------------------------------------------
        1  |  0:00.00 |  5:35.03 |         0    |    25127
        2  |  5:35.03 |  5:26.26 |     25128    |    49603
        3  | 11:01.29 |  5:05.59 |     49604    |    72537
        4  | 16:07.13 |  1:46.00 |     72538    |    80487
        5  | 17:53.13 |  3:51.61 |     80488    |    97873
        6  | 21:44.74 |  5:04.23 |     97874    |   120696
        7  | 26:49.22 |  5:35.62 |    120697    |   145883
        8  | 32:25.09 | 12:10.18 |    145884    |   200651
        9  | 44:35.27 |  2:54.28 |    200652    |   213729
       10  | 47:29.55 |  3:00.70 |    213730    |   227299
       11  | 50:30.50 |  3:09.59 |    227300    |   241533
       12  | 53:40.34 |  3:33.38 |    241534    |   257546
       13  | 57:13.72 |  2:18.58 |    257547    |   267954
Range status and errors
Selected range
     Filename G:\CD\Deep Purple - Deep Purple.wav
     Peak level 98.8 %
     Extraction speed 8.5 X
     Range quality 100.0 %
     Test CRC 77D30BAD
     Copy CRC 77D30BAD
     Copy OK
No errors occurred
AccurateRip summary
Track  1  accurately ripped (confidence 2)  [9B790B24]  (AR v2)
Track  2  accurately ripped (confidence 2)  [7D557573]  (AR v2)
Track  3  accurately ripped (confidence 2)  [61B4D60D]  (AR v2)
Track  4  accurately ripped (confidence 2)  [8F1089C6]  (AR v2)
Track  5  accurately ripped (confidence 2)  [5A3076CF]  (AR v2)
Track  6  accurately ripped (confidence 2)  [9A295628]  (AR v2)
Track  7  accurately ripped (confidence 2)  [0E072520]  (AR v2)
Track  8  accurately ripped (confidence 2)  [E2B94426]  (AR v2)
Track  9  accurately ripped (confidence 2)  [83B88FAB]  (AR v2)
Track 10  accurately ripped (confidence 2)  [35046A0D]  (AR v2)
Track 11  accurately ripped (confidence 2)  [1DD6B190]  (AR v2)
Track 12  accurately ripped (confidence 2)  [A59A0D4E]  (AR v2)
Track 13  accurately ripped (confidence 2)  [3E6782B8]  (AR v2)
All tracks accurately ripped
End of status report
---- CUETools DB Plugin V2.1.3

содержание индексной карты *cue

REM GENRE "Hard Rock"
REM DATE 1969
REM DISCID B10DF40D
REM COMMENT
PERFORMER "Deep Purple"
TITLE "Deep Purple"
FILE "Deep Purple - Deep Purple.flac" WAVE
  TRACK 01 AUDIO
    TITLE "Chasing Shadows"
    PERFORMER "Deep Purple"
    INDEX 01 00:00:00
  TRACK 02 AUDIO
    TITLE Blind
    PERFORMER "Deep Purple"
    INDEX 00 05:31:48
    INDEX 01 05:35:03
  TRACK 03 AUDIO
    TITLE Lalena
    PERFORMER "Deep Purple"
    INDEX 00 10:58:44
    INDEX 01 11:01:29
  TRACK 04 AUDIO
    TITLE "Fault Line"
    PERFORMER "Deep Purple"
    INDEX 00 16:04:03
    INDEX 01 16:07:13
  TRACK 05 AUDIO
    TITLE "The Painter"
    PERFORMER "Deep Purple"
    INDEX 01 17:53:13
  TRACK 06 AUDIO
    TITLE "Why Didn't Rosemary?"
    PERFORMER "Deep Purple"
    INDEX 00 21:42:17
    INDEX 01 21:44:74
  TRACK 07 AUDIO
    TITLE "Bird Has Flown"
    PERFORMER "Deep Purple"
    INDEX 00 26:46:64
    INDEX 01 26:49:22
  TRACK 08 AUDIO
    TITLE April
    PERFORMER "Deep Purple"
    INDEX 00 32:22:43
    INDEX 01 32:25:09
  TRACK 09 AUDIO
    TITLE "Bird Has Flown (alternative A-side version)"
    PERFORMER "Deep Purple"
    INDEX 00 44:30:36
    INDEX 01 44:35:27
  TRACK 10 AUDIO
    TITLE "Emmaretta (studio B-side)"
    PERFORMER "Deep Purple"
    INDEX 00 47:26:64
    INDEX 01 47:29:55
  TRACK 11 AUDIO
    TITLE "Emmaretta (BBC Top Gear Session 14.01.1969)"
    PERFORMER "Deep Purple"
    INDEX 00 50:28:43
    INDEX 01 50:30:50
  TRACK 12 AUDIO
    TITLE "Lalena (BBC radio session 24.06.1969)"
    PERFORMER "Deep Purple"
    INDEX 00 53:38:00
    INDEX 01 53:40:34
  TRACK 13 AUDIO
    TITLE "The Painter (BBC radio session 24.06.1969)"
    PERFORMER "Deep Purple"
    INDEX 00 57:11:49
    INDEX 01 57:13:72
[Профиль] [ЛС]
Кто просматривает тему:

Показать сообщения:    

Текущее время: Сегодня 06:23

Часовой пояс: GMT



Вы не можете начинать темы
Вы не можете отвечать на сообщения
Вы не можете редактировать свои сообщения
Вы не можете удалять свои сообщения
Вы не можете голосовать в опросах
Вы не можете прикреплять файлы к сообщениям
Вы не можете скачивать файлы