Dead By Sunrise • Crawl Back In - Late Show with David Letterman (13.10.2009) [CBS HD][2009, Alternative Rock | Electronic, HDTV 1080i]

 
Автор Сообщение

reversefile ®

Пол:

Стаж: 4 года 5 месяцев

Сообщений: 842

Откуда: ReverseFile.org



Награды: Нет

Торрент-статистика

Создавать темы 11-Авг-2014 19:06

[Цитировать]

Dead By Sunrise • Late Show with David Letterman
Жанр: Alternative Rock | Electronic
Продолжительность: 04:24
Год выпуска: 2009
Описание:
13 October 2009
New York City, New York
Ed Sullivan Theatre
Late Show with David Letterman

SETLIST:
01 Crawl Back In
Качество: HDTV 1080i
Контейнер: TS
Видео: MPEG Video | 1920x1080 | ~16.4 Mbps | 29.970 fps
Аудио: AC-3 | 384 Kbps | 6 ch | 48.0 KHzSource >> [CBS HD]Релиз:

Отчёт MediaInfo / BDInfo

GeneralID : 1 (0x1)Complete name : Dead By Sunrise - Crawl Back In (Live David Letterman 13.10.2009) 1080p.tsFormat : MPEG-TSFile size : 555 MiBDuration : 4mn 24sOverall bit rate mode : VariableOverall bit rate : 17.6 MbpsLaw rating : TV-14 (D)
VideoID : 33 (0x21)Menu ID : 1 (0x1)Format : MPEG VideoFormat version : Version 2Format profile : Main@HighFormat settings, BVOP : YesFormat settings, Matrix : CustomFormat settings, GOP : M=3, N=15Codec ID : 2Duration : 4mn 23sBit rate mode : VariableBit rate : 16.4 MbpsMaximum bit rate : 17.1 MbpsWidth : 1 920 pixelsHeight : 1 080 pixelsDisplay aspect ratio : 16:9Frame rate : 29.970 fpsStandard : ComponentColor space : YUVChroma subsampling : 4:2:0Bit depth : 8 bitsScan type : InterlacedScan order : Top Field FirstCompression mode : LossyBits/(Pixel*Frame) : 0.263Time code of first frame : 00:00:00;00Time code source : Group of pictures headerStream size : 515 MiB (93%)Color primaries : BT.709Transfer characteristics : BT.709Matrix coefficients : BT.709
AudioID : 36 (0x24)Menu ID : 1 (0x1)Format : AC-3Format/Info : Audio Coding 3Mode extension : CM (complete main)Format settings, Endianness : BigCodec ID : 129Duration : 4mn 23sBit rate mode : ConstantBit rate : 384 KbpsChannel(s) : 6 channelsChannel positions : Front: L C R, Side: L R, LFESampling rate : 48.0 KHzBit depth : 16 bitsCompression mode : LossyStream size : 12.1 MiB (2%)Language : English
Text #1ID : 33 (0x21)-CC1Menu ID : 1 (0x1)Format : EIA-608Muxing mode : A/53 / DTVCC TransportMuxing mode, more info : Muxed in Video #1Duration : 4mn 23sBit rate mode : ConstantStream size : 0.00 Byte (0%)
Text #2ID : 33 (0x21)-1Menu ID : 1 (0x1)Format : EIA-708Muxing mode : A/53 / DTVCC TransportMuxing mode, more info : Muxed in Video #1Duration : 4mn 23sBit rate mode : ConstantStream size : 0.00 Byte (0%)
Text #3ID : 33 (0x21)-2Menu ID : 1 (0x1)Format : EIA-708Muxing mode : A/53 / DTVCC TransportMuxing mode, more info : Muxed in Video #1Duration : 4mn 23sBit rate mode : ConstantStream size : 0.00 Byte (0%)

Скриншоты

[Профиль] [ЛС]
Кто просматривает тему:

Показать сообщения:    

Текущее время: Сегодня 10:33

Часовой пояс: GMT



Вы не можете начинать темы
Вы не можете отвечать на сообщения
Вы не можете редактировать свои сообщения
Вы не можете удалять свои сообщения
Вы не можете голосовать в опросах
Вы не можете прикреплять файлы к сообщениям
Вы не можете скачивать файлы