Deнь дypaкa (Aлeкcaндp Баapaнoв) [2014, Россия, комедия, приключения, DVD5] R5 Original Rus

 
Автор Сообщение

TorrentFilm ®

Пол:

Стаж: 2 года

Сообщений: 7741



Награды: Нет

Торрент-статистика

Создавать темы 09-Июл-2015 00:02

[Цитировать]

-День дурака-«Мы отыграемся по полной» -Страна: Россия
Студия: Таббак
Жанр: комедия, приключения
Год выпуска: 2014
Мировая премьера: 13 ноября 2014
Российская премьера: 13 ноября 2014, «Bazelevs Distribution»
Дата выхода DVD: 18 Декабря 2014, «CP Дистрибуция»
Продолжительность: 01:26:38
Перевод: Оригинал [Лицензия]
Cубтитры: нет
Оригинальная аудиодорожка: русский-Режиссер: Александр Баранов-В ролях: Алексей Весёлкин, Александр Лыков, Антонина Дивина, Александр Воробьев, Светлана Чуйкина, Сергей Удовик, Сергей Беляев, Игорь Кистол, Антон Васильев, Дмитрий Белоцерковский-Описание: Ванька работает швейцаром в гостинице. Он ненавидит ее обеспеченных постояльцев, но при этом мечтает пожить их роскошной жизнью. А пока вынужден жить в машине, купленной в кредит, так как из съемной квартиры его выгнали за неуплату. В этой и без того непростой ситуации на голову парня сваливается коллектор Сергей Сергеевич, который твердо решил выбить из Ваньки долг. Чтобы хоть как-то отсрочить расправу, Ванька выдает себя за сына богатого фермера, который с легкостью погасит кредит. Но по дороге на ферму попутчики поневоле попадают в аварию, которая оборачивается для Ваньки неожиданным спасением. Нечистый на руку мэр провинциального городка и вороватые сотрудники его администрации принимают московских гостей за представителей Следственного комитета. Вчерашнего швейцара ждет королевский прием и взятка в виде руки и сердца мэрской дочки… или скандальное разоблачение.-Бонусы: Смотрите на DVD, Создатели и исполнители- -Релиз группы: -Качество: DVD5 R5
Формат: DVD-Video
Видео кодек: MPEG2
Аудио кодек: AC3
Видео: PAL 16:9 (720x576(0.578)) MPEG Video, 25,000 кадр/сек, 5997 Кбит/сек
Аудио: Russian (Dolby AC3, 6 ch) 448 Кбит/сек, 48,0 КГц--

DVDInfo

Title: Рабочий
Size: 4.32 Gb ( 4 525 746 KBytes ) - DVD-5
Enabled regions: 1, 2, 3, 4, 5, 6, 7, 8
VTS_01 :
Play Length: 00:00:05
Video: PAL 4:3 (720x576) VBR
Audio:
Not specified (Dolby AC3, 2 ch)
Not specified (Dolby AC3, 2 ch)
Not specified (Dolby AC3, 2 ch)
Subtitles:
Not specified
Not specified
VTS_02 :
Play Length: 00:00:09
Video: PAL 16:9 (720x576) VBR, Auto Pan&Scan
Audio:
Not specified (Dolby AC3, 2 ch)
Not specified (Dolby AC3, 2 ch)
Not specified (Dolby AC3, 2 ch)
Subtitles:
Not specified
VTS_03 :
Play Length: 00:02:07
Video: PAL 16:9 (720x576) VBR, Auto Pan&Scan
Audio:
Not specified (Dolby AC3, 2 ch)
Not specified (Dolby AC3, 2 ch)
Not specified (Dolby AC3, 2 ch)
Subtitles:
Not specified
VTS_04 :
Play Length: 01:26:38
Video: PAL 16:9 (720x576) VBR, Auto Pan&Scan
Audio:
Russian (Dolby AC3, 6 ch)
VTS_05 :
Play Length: 00:01:46
Video: PAL 16:9 (720x576) VBR, Auto Pan&Scan
Audio:
Not specified (Dolby AC3, 2 ch)
Subtitles:
Not specified
VTS_06 :
Play Length: 00:01:58
Video: PAL 16:9 (720x576) VBR, Auto Pan&Scan
Audio:
Not specified (Dolby AC3, 2 ch)
Subtitles:
Not specified
VTS_07 :
Play Length: 00:02:24
Video: PAL 16:9 (720x576) VBR, Auto Pan&Scan
Audio:
Not specified (Dolby AC3, 2 ch)
Subtitles:
Not specified
Menu Video:
PAL 16:9 (720x576) VBR
Auto Pan&Scan, Auto Letterboxed
Menu Subtitles:
Not specified
Menu English Language Unit :
Root Menu
Chapter (PTT) Menu

MediaInfo

Общее
Полное имя : F:\Новинки 2014\Den.duraka.2014.DVD5\VIDEO_TS\VTS_04_2.VOB
Формат : MPEG-PS
Размер файла : 1024 Мбайт
Продолжительность : 21 м.
Режим общего битрейта : Переменный
Общий поток : 6576 Кбит/сек
Видео
Идентификатор : 224 (0xE0)
Формат : MPEG Video
Версия формата : Version 2
Профиль формата : Main@Main
Параметр BVOP формата : Да
Параметр матрицы формата : По умолчанию
Параметр GOP формата : M=3, N=12
Продолжительность : 21 м.
Вид битрейта : Переменный
Битрейт : 5997 Кбит/сек
Максимальный битрейт : 8000 Кбит/сек
Ширина : 720 пикселей
Высота : 576 пикселей
Соотношение сторон : 16:9
Частота кадров : 25,000 кадров/сек
Стандарт вещания : PAL
Цветовое пространство : YUV
Субдискретизация насыщенности : 4:2:0
Битовая глубина : 8 бит
Тип развёртки : Прогрессивная
Метод сжатия : С потерями
Бит/(Пиксели*Кадры) : 0.578
Временной код первого кадра : 00:21:47:11
Оригинал временного кода : Group of pictures header
Размер потока : 934 Мбайт (91%)
Аудио
Идентификатор : 189 (0xBD)-128 (0x80)
Формат : AC-3
Формат/Информация : Audio Coding 3
Расширение режима : CM (complete main)
Параметр Endianness формата : Big
Режим смешивания : DVD-Video
Продолжительность : 21 м.
Вид битрейта : Постоянный
Битрейт : 448 Кбит/сек
Каналы : 6 каналов
Расположение каналов : Front: L C R, Side: L R, LFE
Частота : 48,0 КГц
Битовая глубина : 16 бит
Метод сжатия : С потерями
Задержка видео : -672 мс.
Размер потока : 69,8 Мбайт (7%)

Скриншоты меню

Скриншоты фильма

Скриншоты доп. материалов


-
-
[Профиль] [ЛС]

Создавать темы 06-Авг-2015 23:37 (спустя 28 дней)

Топик был перенесен из форума Фильмы (HD DVD, Blu-ray и BDRemux) в форум Фильмы (DVD 5/9)
sergej644
 
Кто просматривает тему:

Показать сообщения:    

Текущее время: Сегодня 04:31

Часовой пояс: GMT



Вы не можете начинать темы
Вы не можете отвечать на сообщения
Вы не можете редактировать свои сообщения
Вы не можете удалять свои сообщения
Вы не можете голосовать в опросах
Вы не можете прикреплять файлы к сообщениям
Вы не можете скачивать файлы