(Rock) DDT - 9 CD - 1992-2000 (2011), FLAC (image+.cue), lossless

 
Автор Сообщение

sergej644 ®

Пол:

Стаж: 5 лет

Сообщений: 6091

Откуда: Soviet Union



Награды: Нет

Торрент-статистика

Создавать темы 29-Июл-2014 14:31

[Цитировать]

-ДДТ - 9 CD (Переиздание)- - Жанр: Rock
Страна-производитель дисков: Россия
Год издания дисков: 1992-2000 (2011)
Аудио кодек: FLAC (*.flac)
Тип рипа: image+.cue
Битрейт аудио: lossless
Источник (релизер): bruk67
Продолжительность: 08:12:33
Наличие сканов в содержимом раздачи: 600 dpi, JPG
- -

1992 - Актриса весна

Актриса весна --Страна-производитель диска: Россия
Год издания диска: 2011
Издатель (лейбл): NAVIGATOR
Номер по каталогу: NR 1611 CDp
Продолжительность: 00:46:22
--Треклист:
01 Дождь
02 В последнюю осень
03 Фома
04 Родина
05 У тебя есть сын
06 Храм
07 Что такое осень
08 Ночь
09 Актриса весна

--

Лог создания рипа

Exact Audio Copy V1.0 beta 3 from 29. August 2011
EAC extraction logfile from 1. January 2012, 12:46
ДДТ / Актриса весна
Used drive  : PIONEER DVD-RW  DVR-212   Adapter: 1  ID: 0
Read mode               : SecureUtilize accurate stream : Yes
Defeat audio cache      : Yes
Make use of C2 pointers : No
Read offset correction                      : 48O
verread into Lead-In and Lead-Out          : No
Fill up missing offset samples with silence : Yes
Delete leading and trailing silent blocks   : No
Null samples used in CRC calculations       : Yes
Used interface                              : Native Win32 interface for Win NT & 2000
Used output format : Internal WAV RoutinesSample format      : 44.100 Hz; 16 Bit; Stereo
TOC of the extracted CD
Track |   Start  |  Length  | Start sector | End sector    ---------------------------------------------------------        1  |  0:00.00 |  5:06.40 |         0    |    22989        2  |  5:06.40 |  4:47.00 |     22990    |    44514        3  |  9:53.40 |  6:53.58 |     44515    |    75547        4  | 16:47.23 |  4:38.45 |     75548    |    96442        5  | 21:25.68 |  3:32.05 |     96443    |   112347        6  | 24:57.73 |  5:31.02 |    112348    |   137174        7  | 30:29.00 |  4:58.55 |    137175    |   159579        8  | 35:27.55 |  5:11.23 |    159580    |   182927        9  | 40:39.03 |  5:43.05 |    182928    |   208657
Range status and errors
Selected range
Filename J:\MP3\ДДТ (Переиздание 2011) FLAC\1992 - Актриса весна\ДДТ - Актриса весна.wav
Peak level 99.9 %     Extraction speed 4.6 X     Range quality 100.0 %     Test CRC 124AD9F8     Copy CRC 124AD9F8     Copy OK
No errors occurred
AccurateRip summary
Track  1  not present in database
Track  2  not present in database
Track  3  not present in database
Track  4  not present in database
Track  5  not present in database
Track  6  not present in database
Track  7  not present in database
Track  8  not present in database
Track  9  not present in database
None of the tracks are present in the AccurateRip database
End of status report
---- CUETools DB Plugin V2.1.3
[CTDB TOCID: n44.9oLQeILbf6WMUvpflsGpqxg-] found, Submit result: n44.9oLQeILbf6WMUvpflsGpqxg- has been confirmed[ba1f432a] (2/2) Accurately ripped
==== Log checksum D667193BE63A48AEC1EBFEAB24427EEB0F746CDD2EA664AA1061977F285C0BC3 ====

Скриншот спектра частот

1993 - Чёрный Пёс Петербург (Live) 2CD

Чёрный Пёс Петербург (Live) 2CD --Страна-производитель диска:Россия
Год издания диска: 2011
Издатель (лейбл): NAVIGATOR
Номер по каталогу: NR 1711 CDp
Продолжительность: 00:53:32+00:45:29
--Треклист:
Vol.1:
01. Пролог
02. Новые блокадники
03. Styx
04. Храм
05. Беда
06. Ты не один
07. Я остановил время
08. В это
09. POST Интеллигент
10. Террорист
Vol.2:
01. Чёрный пёс Петербург
02. Дождь
03. Осень, В последнюю осень
04. Что такое осень
05. Я зажёг в церквах все свечи, Суббота
06. Ленинград
07. Родина
08. Рождественская

--

Лог создания рипа - Vol.1

Exact Audio Copy V1.0 beta 3 from 29. August 2011
EAC extraction logfile from 1. January 2012, 13:24
DDT / Чёрный Пёс Петербург - Vol.1
Used drive  : PIONEER DVD-RW  DVR-212   Adapter: 1  ID: 0
Read mode               : SecureUtilize accurate stream : Yes
Defeat audio cache      : Yes
Make use of C2 pointers : No
Read offset correction                      : 48
Overread into Lead-In and Lead-Out          : No
Fill up missing offset samples with silence : Yes
Delete leading and trailing silent blocks   : No
Null samples used in CRC calculations       : Yes
Used interface                              : Native Win32 interface for Win NT & 2000
Used output format : Internal WAV RoutinesSample format      : 44.100 Hz; 16 Bit; Stereo
TOC of the extracted CD
Track |   Start  |  Length  | Start sector | End sector    ---------------------------------------------------------        1  |  0:00.00 |  4:25.58 |         0    |    19932        2  |  4:25.58 |  5:29.07 |     19933    |    44614        3  |  9:54.65 |  4:29.58 |     44615    |    64847        4  | 14:24.48 |  4:17.50 |     64848    |    84172        5  | 18:42.23 |  7:51.05 |     84173    |   119502        6  | 26:33.28 |  5:08.62 |    119503    |   142664        7  | 31:42.15 |  5:08.71 |    142665    |   165835        8  | 36:51.11 |  4:47.42 |    165836    |   187402        9  | 41:38.53 |  4:47.63 |    187403    |   208990       10  | 46:26.41 |  7:05.27 |    208991    |   240892
Range status and errors
Selected range
Filename J:\MP3\ДДТ (Переиздание 2011) FLAC\1993 - Чёрный Пёс Петербург (Live) 2CD\Vol.1\DDT - Чёрный Пёс Петербург - Vol.1.wav
Peak level 79.8 %     Extraction speed 6.9 X     Range quality 100.0 %     Test CRC 5BABE86B     Copy CRC 5BABE86B     Copy OK
No errors occurred
AccurateRip summary
Track  1  accurately ripped (confidence 1)  [B87E6322]  (AR v2)
Track  2  accurately ripped (confidence 1)  [E63A044E]  (AR v2)
Track  3  accurately ripped (confidence 1)  [6B378DAC]  (AR v2)
Track  4  accurately ripped (confidence 1)  [3BC39894]  (AR v2)
Track  5  accurately ripped (confidence 1)  [CC5F5C2D]  (AR v2)
Track  6  accurately ripped (confidence 1)  [F792E4A4]  (AR v2)
Track  7  accurately ripped (confidence 1)  [16DFA4BB]  (AR v2)
Track  8  accurately ripped (confidence 1)  [902F97CD]  (AR v2)
Track  9  accurately ripped (confidence 1)  [FECBCAE6]  (AR v2)
Track 10  accurately ripped (confidence 1)  [82661092]  (AR v2)
All tracks accurately ripped
End of status report
---- CUETools DB Plugin V2.1.3
[CTDB TOCID: 4Q_2TbiQfeQ5zeWXT8dPNqcZEYQ-] found, Submit result: 4Q_2TbiQfeQ5zeWXT8dPNqcZEYQ- has been confirmed[10660bfe] (2/2) Accurately ripped
==== Log checksum 9168653F554B17C5C9B20D483C481A2E2B5B59F1976C0A7BF773B89818E5AE42 ====

Лог создания рипа - Vol.2

Exact Audio Copy V1.0 beta 3 from 29. August 2011
EAC extraction logfile from 1. January 2012, 14:16
DDT / Чёрный Пёс Петербург - Vol.2
Used drive  : PIONEER DVD-RW  DVR-212   Adapter: 1  ID: 0
Read mode               : SecureUtilize accurate stream : Yes
Defeat audio cache      : Yes
Make use of C2 pointers : No
Read offset correction                      : 48
Overread into Lead-In and Lead-Out          : No
Fill up missing offset samples with silence : Yes
Delete leading and trailing silent blocks   : No
Null samples used in CRC calculations       : Yes
Used interface                              : Native Win32 interface for Win NT & 2000
Used output format : Internal WAV RoutinesSample format      : 44.100 Hz; 16 Bit; Stereo
TOC of the extracted CD
Track |   Start  |  Length  | Start sector | End sector    ---------------------------------------------------------        1  |  0:00.00 | 11:26.57 |         0    |    51506        2  | 11:26.57 |  4:01.43 |     51507    |    69624        3  | 15:28.25 |  4:50.30 |     69625    |    91404        4  | 20:18.55 |  4:44.15 |     91405    |   112719        5  | 25:02.70 |  6:10.12 |    112720    |   140481        6  | 31:13.07 |  4:33.40 |    140482    |   160996        7  | 35:46.47 |  4:49.40 |    160997    |   182711        8  | 40:36.12 |  4:53.20 |    182712    |   204706
Range status and errors
Selected range
Filename J:\MP3\ДДТ (Переиздание 2011) FLAC\1993 - Чёрный Пёс Петербург (Live) 2CD\Vol.2\DDT - Чёрный Пёс Петербург - Vol.2.wav
Peak level 84.2 %     Extraction speed 6.7 X     Range quality 100.0 %     Test CRC 890357BE     Copy CRC 890357BE     Copy OK
No errors occurred
AccurateRip summary
Track  1  not present in database
Track  2  not present in database
Track  3  not present in database
Track  4  not present in database
Track  5  not present in database
Track  6  not present in database
Track  7  not present in database
Track  8  not present in database
None of the tracks are present in the AccurateRip database
End of status report
---- CUETools DB Plugin V2.1.3
[CTDB TOCID: 6EeXhi.KeFWixTBtjCt7pjJAhr8-] found, Submit result: 6EeXhi.KeFWixTBtjCt7pjJAhr8- has been confirmed[0c6443f9] (2/2) Accurately ripped
==== Log checksum 9C09250AFCFC3DDFE05D7F03BC02BC9C9A02F4BD32EB457E2F73CC8B82170FA1 ====

Скриншот спектра частот - Vol.1

Скриншот спектра частот - Vol.2

1994 - Это всё...

Это всё... --Страна-производитель диска: Россия
Год издания диска: 2011
Издатель (лейбл): NAVIGATOR
Номер по каталогу: NR 1811 CDp
Продолжительность: 00:42:49
--Треклист:
01. Глазища
02. Ветер
03. Четыре окна
04. Белая ночь
05. Российское танго
06. Агидель (Белая река)
07. Жизнь на месте
08. Это всё...

--

Лог создания рипа

Exact Audio Copy V1.0 beta 3 from 29. August 2011
EAC extraction logfile from 1. January 2012, 14:32
DDT / Это всё...
Used drive  : PIONEER DVD-RW  DVR-212   Adapter: 1  ID: 0
Read mode               : SecureUtilize accurate stream : Yes
Defeat audio cache      : Yes
Make use of C2 pointers : No
Read offset correction                      : 48
Overread into Lead-In and Lead-Out          : No
Fill up missing offset samples with silence : Yes
Delete leading and trailing silent blocks   : No
Null samples used in CRC calculations       : Yes
Used interface                              : Native Win32 interface for Win NT & 2000
Used output format : Internal WAV RoutinesSample format      : 44.100 Hz; 16 Bit; Stereo
TOC of the extracted CD
Track |   Start  |  Length  | Start sector | End sector    ---------------------------------------------------------        1  |  0:00.00 |  5:09.12 |         0    |    23186        2  |  5:09.12 |  4:51.73 |     23187    |    45084        3  | 10:01.10 |  4:16.65 |     45085    |    64349        4  | 14:18.00 |  6:53.37 |     64350    |    95361        5  | 21:11.37 |  5:00.43 |     95362    |   117904        6  | 26:12.05 |  4:57.67 |    117905    |   140246        7  | 31:09.72 |  3:49.68 |    140247    |   157489        8  | 34:59.65 |  7:49.10 |    157490    |   192674
Range status and errors
Selected range
Filename J:\MP3\ДДТ (Переиздание 2011) FLAC\1994 - Это всё\DDT - Это всё....wav
Peak level 89.1 %     Extraction speed 6.5 X     Range quality 99.9 %     Test CRC B3EFE243     Copy CRC B3EFE243     Copy OK
No errors occurred
AccurateRip summary
Track  1  cannot be verified as accurate (confidence 4)  [2E1F3A3D], AccurateRip returned [F39CC01F]  (AR v2)
Track  2  cannot be verified as accurate (confidence 4)  [06AC88D3], AccurateRip returned [75F88685]  (AR v2)
Track  3  cannot be verified as accurate (confidence 4)  [D9918800], AccurateRip returned [59810C96]  (AR v2)
Track  4  cannot be verified as accurate (confidence 4)  [2D19CD50], AccurateRip returned [48E69A20]  (AR v2)
Track  5  cannot be verified as accurate (confidence 4)  [36BFCBB3], AccurateRip returned [E7FFE51D]  (AR v2)
Track  6  cannot be verified as accurate (confidence 4)  [0F8B67A6], AccurateRip returned [818A1DD1]  (AR v2)
Track  7  cannot be verified as accurate (confidence 4)  [7E41D933], AccurateRip returned [F953F329]  (AR v2)
Track  8  cannot be verified as accurate (confidence 4)  [E3272C03], AccurateRip returned [BB1483B0]  (AR v2)
No tracks could be verified as accurateYou may have a different pressing from the one(s) in the database
End of status report
---- CUETools DB Plugin V2.1.3
[CTDB TOCID: JtME9ftdlMRUftgJbj0ezdecLig-] found, Submit result: JtME9ftdlMRUftgJbj0ezdecLig- has been confirmed[1d2e0058] (6/6) Accurately ripped
==== Log checksum 16214589AAD782C18BA16AD02BBFFDE7C1E75663F440A7FC27416D553FE481CF ====

Скриншот спектра частот

1996 - Любовь

Любовь --Страна-производитель диска: Россия
Год издания диска: 2011
Издатель (лейбл): NAVIGATOR
Номер по каталогу: NR 1911 CDp
Продолжительность: 00:46:50
--Треклист:
01 Полная луна
02 Железнодорожник
03 Я у вас
04 Вороны
05 Далеко, далеко...
06 Любовь
07 Фонограмщик
08 Онанист
09 Сказка

--

Лог создания рипа

Exact Audio Copy V1.0 beta 3 from 29. August 2011
EAC extraction logfile from 1. January 2012, 14:55
DDT / Любовь
Used drive  : PIONEER DVD-RW  DVR-212   Adapter: 1  ID: 0
Read mode               : SecureUtilize accurate stream : Yes
Defeat audio cache      : Yes
Make use of C2 pointers : No
Read offset correction                      : 48
Overread into Lead-In and Lead-Out          : No
Fill up missing offset samples with silence : Yes
Delete leading and trailing silent blocks   : No
Null samples used in CRC calculations       : Yes
Used interface                              : Native Win32 interface for Win NT & 2000
Used output format : Internal WAV RoutinesSample format      : 44.100 Hz; 16 Bit; Stereo
TOC of the extracted CD
Track |   Start  |  Length  | Start sector | End sector    ---------------------------------------------------------        1  |  0:00.00 |  5:13.13 |         0    |    23487        2  |  5:13.13 |  7:20.52 |     23488    |    56539        3  | 12:33.65 |  5:17.60 |     56540    |    80374        4  | 17:51.50 |  4:07.36 |     80375    |    98935        5  | 21:59.11 |  4:59.14 |     98936    |   121374        6  | 26:58.25 |  4:50.11 |    121375    |   143135        7  | 31:48.36 |  4:56.19 |    143136    |   165354        8  | 36:44.55 |  4:25.14 |    165355    |   185243        9  | 41:09.69 |  5:39.64 |    185244    |   210732
Range status and errors
Selected range
Filename J:\MP3\ДДТ (Переиздание 2011) FLAC\1996 - Любовь\DDT - Любовь.wav
Peak level 100.0 %     Extraction speed 6.7 X     Range quality 100.0 %     Test CRC CE157289     Copy CRC CE157289     Copy OK
No errors occurred
AccurateRip summary
Track  1  not present in database
Track  2  not present in database
Track  3  not present in database
Track  4  not present in database
Track  5  not present in database
Track  6  not present in database
Track  7  not present in database
Track  8  not present in database
Track  9  not present in database
None of the tracks are present in the AccurateRip database
End of status report
---- CUETools DB Plugin V2.1.3
[CTDB TOCID: InE4BwigyfyKcBoab3ZSbbeNfyE-] found, Submit result: InE4BwigyfyKcBoab3ZSbbeNfyE- has been confirmed[dca39024] (1/1) Accurately ripped
==== Log checksum F09F36ABDCF5BE5DF5A38E7051C070AA0E9EA8DE24728F2CB2ECDCC1350953A1 ====

Скриншот спектра частот

1997 - Рождённый в СССР

Рождённый в СССР --Страна-производитель диска: Россия
Год издания диска: 2011
Издатель (лейбл): NAVIGATOR
Номер по каталогу: NR 2011 CDp
Продолжительность: 00:54:17
--Треклист:

01. Уровни
02. Духи
03. Апокалипсис
04. Правда на правду
05. На небе вороны
06. Блок rаk'in rоллоув
07. Гляди пешком
08. Мёртвый город. Рождество
09. Рожденный в СССР
10. Пацаны

--

Лог создания рипа

Exact Audio Copy V1.0 beta 3 from 29. August 2011
EAC extraction logfile from 1. January 2012, 15:22
DDT / Рождённый в СССР
Used drive  : PIONEER DVD-RW  DVR-212   Adapter: 1  ID: 0
Read mode               : SecureUtilize accurate stream : Yes
Defeat audio cache      : Yes
Make use of C2 pointers : No
Read offset correction                      : 48
Overread into Lead-In and Lead-Out          : No
Fill up missing offset samples with silence : Yes
Delete leading and trailing silent blocks   : No
Null samples used in CRC calculations       : Yes
Used interface                              : Native Win32 interface for Win NT & 2000
Used output format : Internal WAV RoutinesSample format      : 44.100 Hz; 16 Bit; Stereo
TOC of the extracted CD
Track |   Start  |  Length  | Start sector | End sector    ---------------------------------------------------------        1  |  0:00.00 |  1:47.35 |         0    |     8059        2  |  1:47.35 |  4:10.58 |      8060    |    26867        3  |  5:58.18 |  4:26.04 |     26868    |    46821        4  | 10:24.22 |  9:10.03 |     46822    |    88074        5  | 19:34.25 |  3:45.44 |     88075    |   104993        6  | 23:19.69 | 11:28.28 |    104994    |   156621        7  | 34:48.22 |  7:24.60 |    156622    |   189981        8  | 42:13.07 |  5:37.07 |    189982    |   215263        9  | 47:50.14 |  4:25.23 |    215264    |   235161       10  | 52:15.37 |  2:01.62 |    235162    |   244298
Range status and errors
Selected range
Filename J:\MP3\ДДТ (Переиздание 2011) FLAC\1997 - Рождённый в СССР\DDT - Рождённый в СССР.wav
Peak level 99.9 %     Extraction speed 6.9 X     Range quality 100.0 %     Test CRC 756287CB     Copy CRC 756287CB     Copy OK
No errors occurred
AccurateRip summary
Track  1  not present in database
Track  2  not present in database
Track  3  not present in database
Track  4  not present in database
Track  5  not present in database
Track  6  not present in database
Track  7  not present in database
Track  8  not present in database
Track  9  not present in database
Track 10  not present in database
None of the tracks are present in the AccurateRip database
End of status report
---- CUETools DB Plugin V2.1.3
[CTDB TOCID: 1EKDwHYNAJp2HlnHSAqx7pV2t44-] found, Submit result: 1EKDwHYNAJp2HlnHSAqx7pV2t44- has been confirmed[7382791a] (1/1) Accurately ripped
==== Log checksum 097DDF4D60342C7D3FC3D6C8A057B697935EE13CB288989BB17DF12927815F17 ====

Скриншот спектра частот

1999 - Мир номер ноль

Мир номер ноль --Страна-производитель диска: Россия
Год издания диска: 2011
Издатель (лейбл): NAVIGATOR
Номер по каталогу: NR 2111 CDp
Продолжительность: 1:10:10
--Треклист:
01 Музыкальный образ - I
02 Одноразовая жизнь
03 Он
04 Мы
05 Метель
06 Небо на земле
07 Музыкальный образ - II
08 Интервью
09 Расстреляли рассветами
10 Черно-белые танцы
11 Донести синь
12 Музыкальный образ - III (Выход)
13 Герой

--

Лог создания рипа

Exact Audio Copy V1.0 beta 3 from 29. August 2011
EAC extraction logfile from 1. January 2012, 17:00
DDT / Мир номер ноль
Used drive  : PIONEER DVD-RW  DVR-212   Adapter: 1  ID: 0
Read mode               : SecureUtilize accurate stream : Yes
Defeat audio cache      : Yes
Make use of C2 pointers : No
Read offset correction                      : 48
Overread into Lead-In and Lead-Out          : No
Fill up missing offset samples with silence : Yes
Delete leading and trailing silent blocks   : No
Null samples used in CRC calculations       : Yes
Used interface                              : Native Win32 interface for Win NT & 2000
Used output format : Internal WAV RoutinesSample format      : 44.100 Hz; 16 Bit; Stereo
TOC of the extracted CD
Track |   Start  |  Length  | Start sector | End sector    ---------------------------------------------------------        1  |  0:00.00 |  2:35.03 |         0    |    11627        2  |  2:35.03 |  4:49.04 |     11628    |    33306        3  |  7:24.07 |  5:55.26 |     33307    |    59957        4  | 13:19.33 |  4:05.00 |     59958    |    78332        5  | 17:24.33 |  7:40.46 |     78333    |   112878        6  | 25:05.04 |  6:40.04 |    112879    |   142882        7  | 31:45.08 |  1:59.54 |    142883    |   151861        8  | 33:44.62 |  7:30.44 |    151862    |   185655        9  | 41:15.31 |  5:57.61 |    185656    |   212491       10  | 47:13.17 |  6:03.18 |    212492    |   239734       11  | 53:16.35 |  3:59.53 |    239735    |   257712       12  | 57:16.13 |  6:38.48 |    257713    |   287610       13  | 63:54.61 |  6:15.05 |    287611    |   315740
Range status and errors
Selected range
Filename J:\MP3\ДДТ (Переиздание 2011) FLAC\1999 - Мир номер ноль\DDT - Мир номер ноль.wav
Peak level 100.0 %     Extraction speed 7.7 X     Range quality 100.0 %     Test CRC 491F3798     Copy CRC 491F3798     Copy OK
No errors occurred
AccurateRip summary
Track  1  not present in database
Track  2  not present in database
Track  3  not present in database
Track  4  not present in database
Track  5  not present in database
Track  6  not present in database
Track  7  not present in database
Track  8  not present in database
Track  9  not present in database
Track 10  not present in database
Track 11  not present in database
Track 12  not present in database
Track 13  not present in database
None of the tracks are present in the AccurateRip database
End of status report
---- CUETools DB Plugin V2.1.3
[CTDB TOCID: cBLJDZi6v9kP.wed64y4ibOWJio-] found, Submit result: cBLJDZi6v9kP.wed64y4ibOWJio- has been confirmed[1e00aa9d] (1/1) Accurately ripped
==== Log checksum A685A7D3477E3D1E298CA9B86D5DE28CC2A2AF311FF83815548B92436C64941F ====

Скриншот спектра частот

1999 - Просвистела

Просвистела --Страна-производитель диска: Россия
Год издания диска: 2011
Издатель (лейбл): NAVIGATOR
Номер по каталогу: NR 2211 CDp
Продолжительность: 1:14:12
--Треклист:
01. Просвиcтела
02. Я получил эту роль
03. Дождь
04. В последнюю осень
05. Что такое осень
06. Любовь
07. Не стреляй!
08. Еду я на Родину
09. Ветер
10. Белая ночь
11. Белая река
12. Ты не один
13. Ленинград
14. Это всё...

--

Лог создания рипа

Exact Audio Copy V1.0 beta 3 from 29. August 2011
EAC extraction logfile from 1. January 2012, 17:37
DDT / Просвистела
Used drive  : PIONEER DVD-RW  DVR-212   Adapter: 1  ID: 0
Read mode               : SecureUtilize accurate stream : Yes
Defeat audio cache      : Yes
Make use of C2 pointers : No
Read offset correction                      : 48
Overread into Lead-In and Lead-Out          : No
Fill up missing offset samples with silence : Yes
Delete leading and trailing silent blocks   : No
Null samples used in CRC calculations       : Yes
Used interface                              : Native Win32 interface for Win NT & 2000
Used output format : Internal WAV RoutinesSample format      : 44.100 Hz; 16 Bit; Stereo
TOC of the extracted CD
Track |   Start  |  Length  | Start sector | End sector    ---------------------------------------------------------        1  |  0:00.00 |  3:42.00 |         0    |    16649        2  |  3:42.00 |  5:46.00 |     16650    |    42599        3  |  9:28.00 |  5:07.00 |     42600    |    65624        4  | 14:35.00 |  4:49.06 |     65625    |    87305        5  | 19:24.06 |  4:59.55 |     87306    |   109785        6  | 24:23.61 |  4:52.04 |    109786    |   131689        7  | 29:15.65 |  4:22.54 |    131690    |   151393        8  | 33:38.44 |  4:40.00 |    151394    |   172393        9  | 38:18.44 |  4:52.17 |    172394    |   194310       10  | 43:10.61 |  6:53.01 |    194311    |   225286       11  | 50:03.62 |  4:58.03 |    225287    |   247639       12  | 55:01.65 |  5:12.20 |    247640    |   271059       13  | 60:14.10 |  6:08.00 |    271060    |   298659       14  | 66:22.10 |  7:49.42 |    298660    |   333876
Range status and errors
Selected range
Filename J:\MP3\ДДТ (Переиздание 2011) FLAC\1999 - Просвистела\DDT - Просвистела.wav
Peak level 100.0 %     Extraction speed 7.9 X     Range quality 100.0 %     Test CRC 0A774FDC     Copy CRC 0A774FDC     Copy OK
No errors occurred
AccurateRip summary
Track  1  not present in database
Track  2  not present in database
Track  3  not present in database
Track  4  not present in database
Track  5  not present in database
Track  6  not present in database
Track  7  not present in database
Track  8  not present in database
Track  9  not present in database
Track 10  not present in database
Track 11  not present in database
Track 12  not present in database
Track 13  not present in database
Track 14  not present in database
None of the tracks are present in the AccurateRip database
End of status report
---- CUETools DB Plugin V2.1.3
[CTDB TOCID: fSOJaLL2yyLhcdNHL.mNnBKt0Bo-] found, Submit result: fSOJaLL2yyLhcdNHL.mNnBKt0Bo- has been confirmed[5a99dcac] (1/1) Accurately ripped
==== Log checksum DCF3899E64A21566C495214A2137B5D2646DC4A42A1E8D26D59EF384DFBC33C4 ====

Скриншот спектра частот

2000 - Метель августа

Метель августа --Страна-производитель диска: Россия
Год издания диска: 2011
Издатель (лейбл): NAVIGATOR
Номер по каталогу: NR 2311 CDp
Продолжительность: 00:58:32
--Треклист:
01 Бродяга
02 Питер
03 Летели облака
04 Московская барыня
05 Подарок
06 Новое сердце
07 Потолок
08 Ночь Людмила
09 Стих
10 Свобода
11 В час когда усну
12 Россияне
13 Гражданка

--

Лог создания рипа

Exact Audio Copy V1.0 beta 3 from 29. August 2011
EAC extraction logfile from 1. January 2012, 18:31
DDT / Метель августа
Used drive  : PIONEER DVD-RW  DVR-212   Adapter: 1  ID: 0
Read mode               : SecureUtilize accurate stream : Yes
Defeat audio cache      : Yes
Make use of C2 pointers : No
Read offset correction                      : 48
Overread into Lead-In and Lead-Out          : No
Fill up missing offset samples with silence : Yes
Delete leading and trailing silent blocks   : No
Null samples used in CRC calculations       : Yes
Used interface                              : Native Win32 interface for Win NT & 2000
Used output format : Internal WAV RoutinesSample format      : 44.100 Hz; 16 Bit; Stereo
TOC of the extracted CD
Track |   Start  |  Length  | Start sector | End sector    ---------------------------------------------------------        1  |  0:00.00 |  4:19.40 |         0    |    19464        2  |  4:19.40 |  5:38.70 |     19465    |    44884        3  |  9:58.35 |  4:24.68 |     44885    |    64752        4  | 14:23.28 |  3:23.11 |     64753    |    79988        5  | 17:46.39 |  5:10.54 |     79989    |   103292        6  | 22:57.18 |  4:47.69 |    103293    |   124886        7  | 27:45.12 |  5:17.37 |    124887    |   148698        8  | 33:02.49 |  4:06.67 |    148699    |   167215        9  | 37:09.41 |  1:40.20 |    167216    |   174735       10  | 38:49.61 |  6:18.33 |    174736    |   203118       11  | 45:08.19 |  3:46.47 |    203119    |   220115       12  | 48:54.66 |  5:21.12 |    220116    |   244202       13  | 54:16.03 |  4:16.09 |    244203    |   263411
Range status and errors
Selected range
Filename J:\MP3\ДДТ (Переиздание 2011) FLAC\2000 - Метель августа\DDT - Метель августа.wav
Peak level 100.0 %     Extraction speed 7.4 X     Range quality 100.0 %     Test CRC 214195E0     Copy CRC 214195E0     Copy OK
No errors occurred
AccurateRip summary
Track  1  not present in database
Track  2  not present in database
Track  3  not present in database
Track  4  not present in database
Track  5  not present in database
Track  6  not present in database
Track  7  not present in database
Track  8  not present in database
Track  9  not present in database
Track 10  not present in database
Track 11  not present in database
Track 12  not present in database
Track 13  not present in database
None of the tracks are present in the AccurateRip database
End of status report
---- CUETools DB Plugin V2.1.3
[CTDB TOCID: 6gBcsX0gbLwVXMRn3CY71dnhFxI-] found, Submit result: 6gBcsX0gbLwVXMRn3CY71dnhFxI- has been confirmed[a4aa91ba] (2/2) Accurately ripped
==== Log checksum 21E06F4C1C4D3F7421F7105B00138BD7C93B3EB06B9494D43CE2E165A6D429F3 ====

Скриншот спектра частот

-- --
[Профиль] [ЛС]

Создавать темы 13-Авг-2015 10:27 (спустя 1 год)

Топик был перенесен из форума Отечественная в форум Rock
sergej644
 
Кто просматривает тему:

Показать сообщения:    

Текущее время: Сегодня 03:51

Часовой пояс: GMT



Вы не можете начинать темы
Вы не можете отвечать на сообщения
Вы не можете редактировать свои сообщения
Вы не можете удалять свои сообщения
Вы не можете голосовать в опросах
Вы не можете прикреплять файлы к сообщениям
Вы не можете скачивать файлы