David Gilmour: Remember That Night [2007 г.] (Progressive Rock) [BDRip-AVC, 720p]

 
Автор Сообщение

sergej644 ®

Пол:

Стаж: 4 года 11 месяцев

Сообщений: 6035

Откуда: Soviet Union



Награды: Нет

Торрент-статистика

Создавать темы 25-Янв-2015 01:27

[Цитировать]

-David Gilmour: Remember That Night -- Год выпуска: 2007 г.
Страна: UK
Жанр: Progressive Rock
Режиссер: David Mallet
Продолжительность: 02:31:24-Качество видео: BDRip-AVC
Контейнер: MKV
Стандарт разрешения: 720p
Видео кодек: H.264
Аудио кодек: DTS
Видео: 1280x720, 8800 kbps, 29,970 fps, 0.319 bit/pic
Аудио: DTS, 1510 kbps, 6 ch, 48,0 kHz
-Описание:
Концерт в Royal Albert Hall был дан в поддержку нового на тот момент альбома Гилмора — On An Island. Поэтому основой сет-листа стали песни именно с этой пластинки. Причем, помня о давней традиции Pink Floyd, Гилмор исполнил не просто отдельные номера, но весь альбом целиком — от начала и до конца (правда, поменяв пару треков местами). Помимо нового материала прозвучали и классические работы Pink Floyd.-

Трэклист

01. Speak To Me
02. Breathe (In The Air)
03. Time
04. Breathe (In The Air) (reprise)
05. Castellorizon
06. On An Island (featuring Crosby & Nash)
07. The Blue (featuring Crosby & Nash)
08. Red Sky At Night
09. This Heaven
10. Then I Close My Eyes (featuring Robert Wyatt)
11. Smile
12. Take A Breath
13. A Pocketful Of Stones
14. Where We Start
15. Shine On You Crazy Diamond (featuring Crosby & Nash)
16. Fat Old Sun
17. Coming Back To Life
18. High Hopes
19. Echoes
20. Wish You Were Here
21. Find The Cost Of Freedom (featuring Crosby & Nash)
22. Arnold Layne (featuring David Bowie)
23. Comfortably Numb (featuring David Bowie)

Media Info

Общее
Уникальный идентификатор                 : 245693838854650246428325666024210726722 (0xB8D6E9820486765A823107BE0B6E7F42)
Полное имя                               : D:\Torrent files\David.Gilmour.Remember.That.Night.2006.720p.BDRip.DTS.x264.mkv
Формат                                   : Matroska
Версия формата                           : Version 1
Размер файла                             : 10,9 Гбайт
Продолжительность                        : 2 ч. 31 м.
Общий поток                              : 10,3 Мбит/сек
Дата кодирования                         : UTC 2007-12-07 14:54:37
Программа кодирования                    : mkvmerge v2.0.2 ('You're My Flame') built on Feb 21 2007 23:40:55
Библиотека кодирования                   : libebml v0.7.7 + libmatroska v0.8.1
Видео
Идентификатор                            : 1
Формат                                   : AVC
Формат/Информация                        : Advanced Video Codec
Профиль формата                          : High@L5.1
Параметр CABAC формата                   : Да
Параметр ReFrames формата                : 9 кадров
Идентификатор кодека                     : V_MPEG4/ISO/AVC
Продолжительность                        : 2 ч. 31 м.
Битрейт                                  : 8800 Кбит/сек
Ширина                                   : 1280 пикселей
Высота                                   : 720 пикселей
Соотношение сторон                       : 16:9
Режим частоты кадров                     : Постоянный
Частота кадров                           : 29,970 кадров/сек
Цветовое пространство                    : YUV
Субдискретизация насыщенности            : 4:2:0
Битовая глубина                          : 8 бит
Тип развёртки                            : Прогрессивная
Бит/(Пиксели*Кадры)                      : 0.319
Размер потока                            : 9,10 Гбайт (83%)
Библиотека кодирования                   : x264 core 56 svn-680
Настройки программы                      : cabac=1 / ref=6 / deblock=1:-3:-3 / analyse=0x3:0x133 / me=umh / subme=7 / brdo=1 / mixed_ref=1 / me_range=16 / chroma_me=1 / trellis=0 / 8x8dct=1 / cqm=2 / deadzone=6,6 / chroma_qp_offset=0 / threads=6 / nr=0 / decimate=1 / mbaff=0 / bframes=3 / b_pyramid=1 / b_adapt=1 / b_bias=0 / direct=1 / wpredb=1 / bime=1 / keyint=250 / keyint_min=25 / scenecut=40(pre) / rc=2pass / bitrate=8800 / ratetol=1.0 / rceq='blurCplx^(1-qComp)' / qcomp=0.60 / qpmin=6 / qpmax=51 / qpstep=4 / cplxblur=20.0 / qblur=0.5 / ip_ratio=1.40 / pb_ratio=1.30 / aq=1:0.6:15.0
Язык                                     : English
Default                                  : Да
Forced                                   : Нет
Аудио
Идентификатор                            : 2
Формат                                   : DTS
Формат/Информация                        : Digital Theater Systems
Режим                                    : 16
Параметр Endianness формата              : Big
Идентификатор кодека                     : A_DTS
Продолжительность                        : 2 ч. 31 м.
Вид битрейта                             : Постоянный
Битрейт                                  : 1510 Кбит/сек
Каналы                                   : 6 каналов
Расположение каналов                     : Front: L C R, Side: L R, LFE
Частота                                  : 48,0 КГц
Битовая глубина                          : 24 бит
Метод сжатия                             : С потерями
Размер потока                            : 1,60 Гбайт (15%)
Язык                                     : English
Default                                  : Да
Forced                                   : Нет

Скриншоты

-

Доп. информация

Состав:
* Дэвид Гилмор — гитары, вокал
* Ричард Райт — клавишные, вокал
* Фил Манзанера — гитары, вокал
* Джон Кэрин — клавишные, гитара lap steel, программирование, вокал
* Гай Пратт — бас-гитара, вокал
* Стиви ДиСтанислао — барабаны, вокал
* Дик Пэрри — саксофон, клавишные

Приглашенные участники:
* Дэвид Кросби, Грэм Нэш — бэк-вокал в (в 6, 7, 15, 21)
* Роберт Уайатт — корнет-а-пистон (в 10)
* Дэвид Боуи — вокал (в 22, 23)
--Не забываем говорить
[Профиль] [ЛС]
Показать сообщения:    

Текущее время: Сегодня 09:59

Часовой пояс: GMT



Вы не можете начинать темы
Вы не можете отвечать на сообщения
Вы не можете редактировать свои сообщения
Вы не можете удалять свои сообщения
Вы не можете голосовать в опросах
Вы не можете прикреплять файлы к сообщениям
Вы не можете скачивать файлы