(Progressive Rock)David Gilmour - Greatest Hits - 2006 [FLAC, image+cue, lossless]

 
Автор Сообщение

sergej644 ®

Пол:

Стаж: 4 года 11 месяцев

Сообщений: 6046

Откуда: Soviet Union



Награды: Нет

Торрент-статистика

Создавать темы 31-Июл-2016 19:34

[Цитировать]

-David Gilmour - Greatest Hits--
Год издания: 2006
Страна: UK
Жанр: Progressive Rock
Продолжительность: 01:19:54-Лейбл издания: Star Mark
Страна-выпуска диска: Russia
Номер по каталогу: LDB5008-Формат: FLAC
Битрейт аудио: Lossless
Тип рипа: image +.cue
Наличие сканов в содержимом раздачи: да
-

Трэклист


01. A Pocketful of Stones (6:20)
02. On an Island (6:49)
03. Where We Start (6:46)
04. Near the End (5:35)
05. Murder (5:00)
06. There's No Way Out of Here (5:08)
07. Love on the Air (4:19)
08. The Blue (5:27)
09. Out of the Blue (3:35)
10. Smile (4:05)
11. Cruise (4:40)
12. So Far Away (6:05)
13. You Know I'm Right (5:04)
14. No Way (5:32)
15. Short and Sweet (5:28)
-

Лог создания рипа

Exact Audio Copy V1.0 beta 2 from 29. April 2011
Отчёт EAC об извлечении, выполненном 1. сентября 2011, 21:45
David Gilmour / Greatest Hits
Дисковод: _NEC    DVD_RW ND-4550A   Adapter: 0  ID: 0
Режим чтения                 : Достоверность
Использование точного потока : Да
Отключение кэша аудио        : Да
Использование указателей C2  : Нет
Коррекция смещения при чтении                     : 48
Способность читать области Lead-in и Lead-out     : Нет
Заполнение пропущенных сэмплов тишиной            : Да
Удаление блоков с тишиной в начале и конце        : Нет
При вычислениях CRC использовались нулевые сэмплы : Да
Интерфейс                                         : Установленный внешний ASPI-интерфейс
Выходной формат          : Пользовательский кодировщик
Выбранный битрейт        : 128 kBit/s
Качество                 : Высокий
Добавление ID3-тега      : Нет
Утилита сжатия           : D:\Program Files\Exact Audio Copy\Flac\flac.exe
Дополнительные параметры : -V -8 -T "Date=%year%" -T "Genre=%genre%" %source%
TOC извлечённого CD
     Трек |   Старт  | Длительность | Начальный сектор | Конечный сектор
    ---------------------------------------------------------------------
       1  |  0:00.00 |    6:20.00   |           0      |      28499
       2  |  6:20.00 |    6:49.09   |       28500      |      59183
       3  | 13:09.09 |    6:45.71   |       59184      |      89629
       4  | 19:55.05 |    5:35.22   |       89630      |     114776
       5  | 25:30.27 |    4:59.42   |      114777      |     137243
       6  | 30:29.69 |    5:08.00   |      137244      |     160343
       7  | 35:37.69 |    4:19.18   |      160344      |     179786
       8  | 39:57.12 |    5:27.14   |      179787      |     204325
       9  | 45:24.26 |    3:35.12   |      204326      |     220462
      10  | 48:59.38 |    4:05.21   |      220463      |     238858
      11  | 53:04.59 |    4:39.58   |      238859      |     259841
      12  | 57:44.42 |    6:04.47   |      259842      |     287188
      13  | 63:49.14 |    5:04.07   |      287189      |     309995
      14  | 68:53.21 |    5:32.34   |      309996      |     334929
      15  | 74:25.55 |    5:28.31   |      334930      |     359560
Характеристики диапазона извлечения и сообщения об ошибках
Выбранный диапазон
     Имя файла D:\Новая папка\David Gilmour - Greatest Hits (2006, Star Mark LDB5008).wav
     Пиковый уровень 100.0 %
     Скорость извлечения 5.7 X
     Качество диапазона 100.0 %
     CRC копии BABC0F95
     Копирование... OK
Ошибок не произошло
Конец отчёта

Индексная карта (non-compilant .cue)

REM GENRE "Progressive Rock"
REM DATE 2006
REM DISCID E712BA0F
REM COMMENT "ExactAudioCopy v1.0b2"
PERFORMER "David Gilmour"
TITLE "Greatest Hits"
FILE "David Gilmour - Greatest Hits (2006, Star Mark LDB5008).flac" WAVE
  TRACK 01 AUDIO
    TITLE "A Pocketful of Stones"
    PERFORMER "David Gilmour"
    ISRC 000000000000
    FLAGS DCP
    INDEX 01 00:00:00
  TRACK 02 AUDIO
    TITLE "On an Island "
    PERFORMER "David Gilmour"
    ISRC 000000000000
    FLAGS DCP
    INDEX 00 06:18:00
    INDEX 01 06:20:00
  TRACK 03 AUDIO
    TITLE "Where We Start"
    PERFORMER "David Gilmour"
    ISRC 000000000000
    FLAGS DCP
    INDEX 00 13:07:09
    INDEX 01 13:09:09
  TRACK 04 AUDIO
    TITLE "Near the End "
    PERFORMER "David Gilmour"
    ISRC 000000000000
    FLAGS DCP
    INDEX 00 19:53:05
    INDEX 01 19:55:05
  TRACK 05 AUDIO
    TITLE "Murder "
    PERFORMER "David Gilmour"
    ISRC 000000000000
    FLAGS DCP
    INDEX 00 25:28:27
    INDEX 01 25:30:27
  TRACK 06 AUDIO
    TITLE "There's No Way Out of Here"
    PERFORMER "David Gilmour"
    ISRC 000000000000
    FLAGS DCP
    INDEX 00 30:27:69
    INDEX 01 30:29:69
  TRACK 07 AUDIO
    TITLE "Love on the Air "
    PERFORMER "David Gilmour"
    ISRC 000000000000
    FLAGS DCP
    INDEX 00 35:35:69
    INDEX 01 35:37:69
  TRACK 08 AUDIO
    TITLE "The Blue"
    PERFORMER "David Gilmour"
    ISRC 000000000000
    FLAGS DCP
    INDEX 00 39:55:12
    INDEX 01 39:57:12
  TRACK 09 AUDIO
    TITLE "Out of the Blue"
    PERFORMER "David Gilmour"
    ISRC 000000000000
    FLAGS DCP
    INDEX 00 45:22:26
    INDEX 01 45:24:26
  TRACK 10 AUDIO
    TITLE "Smile"
    PERFORMER "David Gilmour"
    ISRC 000000000000
    FLAGS DCP
    INDEX 00 48:57:38
    INDEX 01 48:59:38
  TRACK 11 AUDIO
    TITLE "Cruise "
    PERFORMER "David Gilmour"
    ISRC 000000000000
    FLAGS DCP
    INDEX 00 53:02:59
    INDEX 01 53:04:59
  TRACK 12 AUDIO
    TITLE "So Far Away"
    PERFORMER "David Gilmour"
    ISRC 000000000000
    FLAGS DCP
    INDEX 00 57:42:42
    INDEX 01 57:44:42
  TRACK 13 AUDIO
    TITLE "You Know I'm Right "
    PERFORMER "David Gilmour"
    ISRC 000000000000
    FLAGS DCP
    INDEX 00 63:47:14
    INDEX 01 63:49:14
  TRACK 14 AUDIO
    TITLE "No Way"
    PERFORMER "David Gilmour"
    ISRC 000000000000
    FLAGS DCP
    INDEX 00 68:51:21
    INDEX 01 68:53:21
  TRACK 15 AUDIO
    TITLE "Short and Sweet"
    PERFORMER "David Gilmour"
    ISRC 000000000000
    FLAGS DCP
    INDEX 00 74:23:55
    INDEX 01 74:25:55
--
[Профиль] [ЛС]
Показать сообщения:    

Текущее время: Сегодня 14:58

Часовой пояс: GMT



Вы не можете начинать темы
Вы не можете отвечать на сообщения
Вы не можете редактировать свои сообщения
Вы не можете удалять свои сообщения
Вы не можете голосовать в опросах
Вы не можете прикреплять файлы к сообщениям
Вы не можете скачивать файлы