Dara - Картина Маслом (2014) HDTV [H.264/1080p-LQ]

 
Автор Сообщение

sergej644 ®

Пол:

Стаж: 4 года 11 месяцев

Сообщений: 6046

Откуда: Soviet Union



Награды: Нет

Торрент-статистика

Создавать темы 02-Авг-2014 20:31

[Цитировать]

-Dara - Картина Маслом (2014) HDTV [H.264/1080p-LQ]- Исполнитель: Dara
Год выпуска: 2014
Жанр: Pop
Продолжительность: 00:04:02
Описание: Композиция под названием «Картина маслом» — об искушениях и опасности любви в учащенном ритме влюбленного женского сердца. «Любовь становится опасной тогда, когда жажда игры превыше чувств, — рассказала Dara о своей первой работе.
Качество видео: HDTV [1080p]
Видеокодек: MPEG-4 AVC/H.264
Битрейт видео: ~7009 Кбит/с
Размер кадра: 1920x1080 (16:9), 25,000 кадров/с
Аудиокодек: AAC, 2 ch, stereo
Битрейт аудио: 317 Кбит/с

MediaInfo:

Общее
Полное имя : Dara - Картина Маслом.mp4
Формат : MPEG-4
Профиль формата : Base Media / Version 2
Идентификатор кодека : mp42
Размер файла : 212 Мбайт
Продолжительность : 4 м. 2 с.
Режим общего битрейта : Переменный
Общий поток : 7331 Кбит/сек
Дата кодирования : UTC 2014-06-27 07:56:37
Дата пометки : UTC 2014-06-27 07:56:40
©TIM : 00:00:00:00
©TSC : 25
©TSZ : 1
Видео
Идентификатор : 1
Формат : AVC
Формат/Информация : Advanced Video Codec
Профиль формата : [url=mailto:High@L4.0]High@L4.0[/url]
Параметр CABAC формата : Да
Параметр ReFrames формата : 3 кадра
Идентификатор кодека : avc1
Идентификатор кодека/Информация : Advanced Video Coding
Продолжительность : 4 м. 2 с.
Вид битрейта : Переменный
Битрейт : 7009 Кбит/сек
Максимальный битрейт : 8000 Кбит/сек
Ширина : 1920 пикселей
Высота : 1080 пикселей
Соотношение сторон : 16:9
Режим частоты кадров : Постоянный
Частота кадров : 25,000 кадров/сек
Стандарт вещания : PAL
Цветовое пространство : YUV
Субдискретизация насыщенности : 4:2:0
Битовая глубина : 8 бит
Тип развёртки : Прогрессивная
Бит/(Пиксели*Кадры) : 0.135
Размер потока : 203 Мбайт (96%)
Язык : English
Дата кодирования : UTC 2014-06-27 07:56:37
Дата пометки : UTC 2014-06-27 07:56:37
Основные цвета : BT.709
Характеристики трансфера : BT.709
Коэффициенты матрицы : BT.709
Аудио
Идентификатор : 2
Формат : AAC
Формат/Информация : Advanced Audio Codec
Профиль формата : LC
Идентификатор кодека : 40
Продолжительность : 4 м. 2 с.
Продолжительность оригинала : 4 м. 2 с.
Вид битрейта : Переменный
Битрейт : 317 Кбит/сек
Максимальный битрейт : 414 Кбит/сек
Каналы : 2 канала
Расположение каналов : Front: L R
Частота : 48,0 КГц
Метод сжатия : С потерями
Размер потока : 9,18 Мбайт (4%)
Размер потока оригинала : 9,18 Мбайт (4%)
Язык : English
Дата кодирования : UTC 2014-06-27 07:56:37
Дата пометки : UTC 2014-06-27 07:56:37
Скриншоты:
[Профиль] [ЛС]

Создавать темы 13-Авг-2015 12:07 (спустя 1 год)

Топик был перенесен из форума Видеоклипы в форум Наши клипы
sergej644
 
Кто просматривает тему:

Показать сообщения:    

Текущее время: Сегодня 17:40

Часовой пояс: GMT



Вы не можете начинать темы
Вы не можете отвечать на сообщения
Вы не можете редактировать свои сообщения
Вы не можете удалять свои сообщения
Вы не можете голосовать в опросах
Вы не можете прикреплять файлы к сообщениям
Вы не можете скачивать файлы