Damon Albarn. La Musicale live 2014 [2014, Britpop/Alternative rock/Electronic/Alternative hip hop/World, HDTV 1080i]

 
Автор Сообщение

reversefile ®

Пол:

Стаж: 4 года 5 месяцев

Сообщений: 842

Откуда: ReverseFile.org



Награды: Нет

Торрент-статистика

Создавать темы 11-Авг-2014 18:53

[Цитировать]

Damon Albarn. La Musicale live 2014
Жанр: Britpop/Alternative rock/Electronic/Alternative hip hop/World
Продолжительность: 01:05:43
Год выпуска: 2014
Описание: Выступление британского музыканта, автора, исполнителя, мультиинструменталиста, продюсера и фронтмена группы Blur, а также основоположника и участника проектов Gorillaz и The Good, the Bad and the Queen - Дэймон Албарна в музыкальном шоу La Musicale live на сцене Studio 104, La Plaine-Saint-Denis, France 2014 mar24
Доп. информация: Собственная запись со спутникового канала CANAL+ 2014 jul31
Треклист: Lonely Press Play
Everyday Robots
You and Me
Photographs (You Are Taking Now)
Hollow Ponds
Mr. Tembo
To the End
Heavy Seas of Love
Kingdom of Doom
Качество: HDTV 1080i
Контейнер: TS
Видео кодек: H.264
Аудио кодек: AC3
Видео: Mpeg4 AVC, 1920x1080, 9820 kbps, 25 fps
Аудио: AC3, 192 kbps, 48 kHz, stereo
Аудио 2: AC3, 192 kbps, 48 kHz, stereo
Аудио 3: AC3, 192 kbps, 48 kHz, stereo

Отчёт MediaInfo / BDInfo

GeneralID : 1 (0x1)Complete name : D:\Downloads\Damon Albarn. La Musicale live 2014.tsFormat : MPEG-TSFile size : 5.02 GiBDuration : 1h 5mnOverall bit rate mode : VariableOverall bit rate : 10.9 Mbps
VideoID : 160 (0xA0)Menu ID : 1 (0x1)Format : AVCFormat/Info : Advanced Video CodecFormat profile : High@L4.0Format settings, CABAC : YesFormat settings, ReFrames : 4 framesCodec ID : 27Duration : 1h 5mnBit rate : 9 820 KbpsWidth : 1 920 pixelsHeight : 1 080 pixelsDisplay aspect ratio : 16:9Frame rate : 25.000 fpsColor space : YUVChroma subsampling : 4:2:0Bit depth : 8 bitsScan type : MBAFFBits/(Pixel*Frame) : 0.189Stream size : 4.51 GiB (90%)Color primaries : BT.709Transfer characteristics : BT.709Matrix coefficients : BT.709
Audio #1ID : 81 (0x51)Menu ID : 1 (0x1)Format : AC-3Format/Info : Audio Coding 3Mode extension : CM (complete main)Format settings, Endianness : BigCodec ID : 6Duration : 1h 5mnBit rate mode : ConstantBit rate : 192 KbpsChannel(s) : 2 channelsChannel positions : Front: L RSampling rate : 48.0 KHzBit depth : 16 bitsCompression mode : LossyStream size : 90.3 MiB (2%)Language : qad
Audio #2ID : 82 (0x52)Menu ID : 1 (0x1)Format : AC-3Format/Info : Audio Coding 3Mode extension : CM (complete main)Format settings, Endianness : BigCodec ID : 6Duration : 1h 5mnBit rate mode : ConstantBit rate : 192 KbpsChannel(s) : 2 channelsChannel positions : Front: L RSampling rate : 48.0 KHzBit depth : 16 bitsCompression mode : LossyStream size : 90.3 MiB (2%)Language : French
Audio #3ID : 83 (0x53)Menu ID : 1 (0x1)Format : AC-3Format/Info : Audio Coding 3Mode extension : CM (complete main)Format settings, Endianness : BigCodec ID : 6Duration : 1h 5mnBit rate mode : ConstantBit rate : 192 KbpsChannel(s) : 2 channelsChannel positions : Front: L RSampling rate : 48.0 KHzBit depth : 16 bitsCompression mode : LossyStream size : 90.3 MiB (2%)Language : English
TextID : 33 (0x21)Menu ID : 1 (0x1)Format : DVB SubtitleCodec ID : 6Delay relative to video : 886msLanguage : French / French

Скриншоты

[Профиль] [ЛС]
Кто просматривает тему:

Показать сообщения:    

Текущее время: Сегодня 00:06

Часовой пояс: GMT



Вы не можете начинать темы
Вы не можете отвечать на сообщения
Вы не можете редактировать свои сообщения
Вы не можете удалять свои сообщения
Вы не можете голосовать в опросах
Вы не можете прикреплять файлы к сообщениям
Вы не можете скачивать файлы