Da Vinci Learning: BBC: Джимми Дохерти в Саду Дарвина / Jimmy Doherty in Darwin's Garden [серии 1-3 из 3] (Мет Барретт) [2009 г., Документальный, научно-познавательный, SATRip]

 
Автор Сообщение

skorpionN ®

Пол:

Стаж: 1 год 8 месяцев

Сообщений: 582



Награды: 4 (Подробнее)

Mega Seeder 2 (Количество: 1) Top Releaser 2 (Количество: 1) Mega Seeder 3 (Количество: 1)
Торрент-статистика

Создавать темы 20-Июл-2015 10:43

[Цитировать]

Da Vinci Learning: BBC: Джимми Дохерти в Саду Дарвина / Jimmy Doherty in Darwin's Garden [серии 1-3 из 3]
Год выпуска: 2009
Страна: Великобритания, BBC, Open University Partnership
Жанр: Документальный, научно-познавательный
Продолжительность: 3х ~ 00:58:00
Перевод: Профессиональный (одноголосый)
Режиссер: Мет Барретт
В ролях: ведущий - Джимми Дохерти
Описание: "Происхождение видов путем естественного отбора, или Сохранение благоприятных рас в борьбе за жизнь" - труд английского естествоиспытателя Чарльза Дарвина, опубликованный 24 ноября 1859 года, являющийся одним из наиболее знаменитых трудов в истории науки и основополагающим в сфере эволюционного учения. В этом научном труде Дарвин представляет длинную цепочку аргументов в пользу своей теории. Согласно ей, группы организмов, называющиеся сегодня популяциями, постепенно развиваются благодаря естественному отбору. Именно в данном труде этот процесс был впервые представлен широкой общественности.
Список серий:
01. Опасные идеи / Dangerous Ideas
Фильм рассказывает об опытах, показавшим, что, если разные виды семян замочить в соленой воде на месяц, то многие из них выживут.
02. Начинается буря / The Storm Breaks
Фильм рассказывает об опытах с растениями, которые из-за низкого содержания азота в почве приспособились питаться насекомыми.
03. О людях и обезьянах / Of Apes and Men
Вы увидите эксперимент Дарвина, показывающий, что даже такие скромные представители царства животных как дождевые черви обладают разумом.
Качество: SATRip
Формат: AVI
Видео кодек: XviD
Аудио кодек: AC3
Видео: 704x400 25fps ~1800 Kbps
Аудио: 2 ch, 48 KHz, 192 Kbps

Скриншоты


MediaInfo:

Format : AVI
Format/Info : Audio Video Interleave
File size : 824 MiB
Duration : 57mn 35s
Overall bit rate : 2 002 Kbps
Writing application : VirtualDubMod 1.5.10.3 | www.virtualdub-fr.org || (build 2550/release)
Writing library : VirtualDubMod build 2550/release
Video
ID : 0
Format : MPEG-4 Visual
Format profile : Advanced Simple@L5
Format settings, BVOP : 3
Format settings, QPel : Yes
Format settings, GMC : 3 warppoints
Format settings, Matrix : Default (H.263)
Codec ID : XVID
Codec ID/Hint : XviD
Duration : 57mn 35s
Bit rate : 1 800 Kbps
Width : 704 pixels
Height : 400 pixels
Display aspect ratio : 16:9
Frame rate : 25.000 fps
Color space : YUV
Chroma subsampling : 4:2:0
Bit depth : 8 bits
Scan type : Progressive
Compression mode : Lossy
Bits/(Pixel*Frame) : 0.256
Stream size : 741 MiB (90%)
Writing library : XviD 1.2.1 (UTC 2008-12-04)
Audio
ID : 1
Format : AC-3
Format/Info : Audio Coding 3
Mode extension : CM (complete main)
Format settings, Endianness : Big
Codec ID : 2000
Duration : 57mn 35s
Bit rate mode : Constant
Bit rate : 192 Kbps
Channel(s) : 2 channels
Channel positions : Front: L R
Sampling rate : 48.0 KHz
Compression mode : Lossy
Stream size : 79.1 MiB (10%)
Alignment : Split accross interleaves
Interleave, duration : 40 ms (1.00 video frame)
Interleave, preload duration : 500 ms
[Профиль] [ЛС]

KiruhaDelMar

Стаж: 1 год 8 месяцев

Сообщений: 246



Награды: Нет

Торрент-статистика

Создавать темы 20-Июл-2015 15:30 (спустя 4 часа)

[Цитировать]

Было уже епта paratrooper на рутрекере слямзил ? Пипец бездельник
[Профиль] [ЛС]

skorpionN ®

Пол:

Стаж: 1 год 8 месяцев

Сообщений: 582



Награды: 4 (Подробнее)

Mega Seeder 2 (Количество: 1) Top Releaser 2 (Количество: 1) Mega Seeder 3 (Количество: 1)
Торрент-статистика

Создавать темы 20-Июл-2015 15:41 (спустя 10 минут)

[Цитировать]

Ну надо хоть скрины глянуть, а потом кипиш поднимать. Наука 2.0 это не Da Vinci Learning, умник хренов
[Профиль] [ЛС]

KiruhaDelMar

Стаж: 1 год 8 месяцев

Сообщений: 246



Награды: Нет

Торрент-статистика

Создавать темы 20-Июл-2015 16:59 (спустя 1 час 18 минут)

[Цитировать]

Так ты ради лейбы записал , красава bx
[Профиль] [ЛС]

skorpionN ®

Пол:

Стаж: 1 год 8 месяцев

Сообщений: 582



Награды: 4 (Подробнее)

Mega Seeder 2 (Количество: 1) Mega Seeder 1 (Количество: 1) Mega Seeder 3 (Количество: 1)
Торрент-статистика

Создавать темы 21-Июл-2015 05:56 (спустя 12 часов)

[Цитировать]

Нет, ради тебя
[Профиль] [ЛС]
Кто просматривает тему:

Форум Тема Автор Размер
Da Vinci Learning Da Vinci Learning: BBC: Машина, которая нас создала / The Machine That Made Us (Патрик МакГрэйди / Patrick McGrady) [2008 г., Документальный, история, SATRip] skorpionN 971 MB
Da Vinci Learning Da Vinci Learning: BBC: Музыка простых чисел / The Music of the Primes [серии 1-3 из 3] (Kieran Smyth) [2006 г., Документальный, научно-познавательный, исследования, гипотезы, SATRip] skorpionN 1.1 GB
Da Vinci Learning Da Vinci Learning: BBC: Невидимое простым глазом / Beyond The Naked Eye [серии 1-3 из 3] (Rosalind Bain, Jessica Barrington) [2002 г., Документальный, научно-познавательный, исследования, гипотезы,... skorpionN 1.21 GB
Da Vinci Learning Da Vinci Learning: Зигзаги (Причуды) науки / Quirky science [13 выпусков из 13] (Lee Thean-jeen, Mimi Soeteman, Karan Kow) [2013 г., Документальный, познавательный, история науки, техники SATRip] skorpionN 4.87 GB
Da Vinci Learning Da Vinci Learning: Крайности (Контрасты): свет и тьма / Extreme: Light and Dark (Udo Maurer) [2013 г., Документальный, образование, история, путешествия, SATRip] skorpionN 685 MB
Da Vinci Learning Da Vinci Learning: Музыка мозга / Music of the Brain (Fiona Cochrane) [2009 г., Документальный, человек и культура, SATRip] skorpionN 876 MB
Da Vinci Learning Da Vinci Learning: Плазма: новая заря / Plasma. Ultimate Aurora (Энди Касагранд / Andy Casagrande, Томас Лукас / Thomas Lucas) [2013 г., Документальный, научно-популярный, физика и пространство,... skorpionN 716 MB
Da Vinci Learning Da Vinci Learning: Сила знания. Великие университеты Европы / The Power of Knowledge - Europe's Great Universities [серии 1-6 из 6] (Norbert Kron & Matthias Hoferichter, Galina Breitkreuz,... skorpionN 4.22 GB
Показать сообщения:    

Текущее время: Сегодня 00:10

Часовой пояс: GMT



Вы не можете начинать темы
Вы не можете отвечать на сообщения
Вы не можете редактировать свои сообщения
Вы не можете удалять свои сообщения
Вы не можете голосовать в опросах
Вы не можете прикреплять файлы к сообщениям
Вы не можете скачивать файлы