Da Vinci Learning: Энергия 2050 - жизнь после нефти / Energy 2050. A Life After the Oil Crash (Claudia Giczy and Peter Giczy) [2009 г., Документальный, научно-познавательный, SATRip]

 
Автор Сообщение

skorpionN ®

Пол:

Стаж: 1 год 8 месяцев

Сообщений: 585



Награды: 4 (Подробнее)

Mega Seeder 1 (Количество: 1) Mega Seeder 2 (Количество: 1) Top Releaser 2 (Количество: 1)
Торрент-статистика

Создавать темы 05-Май-2015 12:50

[Цитировать]

Da Vinci Learning: Энергия 2050 - жизнь после нефти / Energy 2050. A Life After the Oil Crash
Год выпуска: 2009
Страна: Австрия, ORF, 3SAT, BR Alpha and Giczy Media
Жанр: Документальный, научно-познавательный
Продолжительность: 00:44:37
Перевод: Профессиональный (одноголосый)
Режиссер: Claudia Giczy and Peter Giczy
Описание: На планете Земля живёт 7 млрд. человек. К 2050 году их число увеличится до 9 млрд. В тоже время такие страны как Китай и Индия переживают экономический рост и их энергетические потребности быстро увеличиваются. Даже в Европе потребление энергии растёт с каждым годом. Всё больше людей потребляют больше и больше энергии. К 2050 году энергопотребление удвоится. Но как утолить этот огромный энергетический голод. До сих пор большую часть наших энергетических потребностей удовлетворяет ископаемое топливо: нефть, уголь и газ но их запасы ограничены и времена дешевой нефти давно прошли. Но мы очень зависим от нефти. Что же будет, когда ее запасы закончатся? Ученые готовятся к этому дню, изобретая новые технологии. Что же им удалось придумать?
Качество: SATRip
Формат: AVI
Видео кодек: XviD
Аудио кодек: AC3
Видео: 704x400 25fps ~1950 Kbps
Аудио: AC3 2ch, 48kHz, 192 kbps

Скриншоты


MediaInfo:

Format : AVI
Format/Info : Audio Video Interleave
File size : 685 MiB
Duration : 44mn 37s
Overall bit rate : 2 145 Kbps
Writing application : TMPGEnc Video Mastering Works 5 Version. 5.0.6.38
Writing library : TMPGEnc Video Mastering Works 5 Version. 5.0.6.38
Video
ID : 0
Format : MPEG-4 Visual
Format profile : Advanced Simple@L5
Format settings, BVOP : 2
Format settings, QPel : No
Format settings, GMC : No warppoints
Format settings, Matrix : Default (H.263)
Muxing mode : Packed bitstream
Codec ID : XVID
Codec ID/Hint : XviD
Duration : 44mn 37s
Bit rate : 1 946 Kbps
Width : 704 pixels
Height : 400 pixels
Display aspect ratio : 16:9
Frame rate : 25.000 fps
Color space : YUV
Chroma subsampling : 4:2:0
Bit depth : 8 bits
Scan type : Progressive
Compression mode : Lossy
Bits/(Pixel*Frame) : 0.276
Stream size : 621 MiB (91%)
Writing library : XviD 73
Audio
ID : 1
Format : AC-3
Format/Info : Audio Coding 3
Mode extension : CM (complete main)
Format settings, Endianness : Big
Codec ID : 2000
Duration : 44mn 37s
Bit rate mode : Constant
Bit rate : 192 Kbps
Channel(s) : 2 channels
Channel positions : Front: L R
Sampling rate : 48.0 KHz
Compression mode : Lossy
Stream size : 61.3 MiB (9%)
Alignment : Aligned on interleaves
Interleave, duration : 480 ms (12.00 video frames)


Последний раз редактировалось: skorpionN (2015-05-05 18:13), всего редактировалось 4 раз(а)
[Профиль] [ЛС]

KiruhaDelMar

Стаж: 1 год 8 месяцев

Сообщений: 246



Награды: Нет

Торрент-статистика

Создавать темы 05-Май-2015 14:13 (спустя 1 час 23 минуты)

[Цитировать]

где то у меня есть эта хрень bw
[Профиль] [ЛС]
Кто просматривает тему:

Форум Тема Автор Размер
Da Vinci Learning Da Vinci Learning: BBC: Джимми Дохерти в Саду Дарвина / Jimmy Doherty in Darwin's Garden [серии 1-3 из 3] (Мет Барретт) [2009 г., Документальный, научно-познавательный, SATRip] skorpionN 2.43 GB
Da Vinci Learning Da Vinci Learning: BBC: Машина, которая нас создала / The Machine That Made Us (Патрик МакГрэйди / Patrick McGrady) [2008 г., Документальный, история, SATRip] skorpionN 971 MB
Da Vinci Learning Da Vinci Learning: BBC: Музыка простых чисел / The Music of the Primes [серии 1-3 из 3] (Kieran Smyth) [2006 г., Документальный, научно-познавательный, исследования, гипотезы, SATRip] skorpionN 1.1 GB
Da Vinci Learning Da Vinci Learning: BBC: Невидимое простым глазом / Beyond The Naked Eye [серии 1-3 из 3] (Rosalind Bain, Jessica Barrington) [2002 г., Документальный, научно-познавательный, исследования, гипотезы,... skorpionN 1.21 GB
Da Vinci Learning Da Vinci Learning: Зигзаги (Причуды) науки / Quirky science [13 выпусков из 13] (Lee Thean-jeen, Mimi Soeteman, Karan Kow) [2013 г., Документальный, познавательный, история науки, техники SATRip] skorpionN 4.87 GB
Da Vinci Learning Da Vinci Learning: Крайности (Контрасты): свет и тьма / Extreme: Light and Dark (Udo Maurer) [2013 г., Документальный, образование, история, путешествия, SATRip] skorpionN 685 MB
Da Vinci Learning Da Vinci Learning: Музыка мозга / Music of the Brain (Fiona Cochrane) [2009 г., Документальный, человек и культура, SATRip] skorpionN 876 MB
Da Vinci Learning Da Vinci Learning: Плазма: новая заря / Plasma. Ultimate Aurora (Энди Касагранд / Andy Casagrande, Томас Лукас / Thomas Lucas) [2013 г., Документальный, научно-популярный, физика и пространство,... skorpionN 716 MB
Показать сообщения:    

Текущее время: Сегодня 14:35

Часовой пояс: GMT



Вы не можете начинать темы
Вы не можете отвечать на сообщения
Вы не можете редактировать свои сообщения
Вы не можете удалять свои сообщения
Вы не можете голосовать в опросах
Вы не можете прикреплять файлы к сообщениям
Вы не можете скачивать файлы