Da Vinci Learning: Эко-2. Энергия / E2. Energy [серии 1-6 из 6] (Тэд Феттинг / Tad Fettig) [2007 г., Документальный, SATRip]

 
Автор Сообщение

skorpionN ®

Пол:

Стаж: 1 год 8 месяцев

Сообщений: 591



Награды: 4 (Подробнее)

Mega Seeder 2 (Количество: 1) Mega Seeder 3 (Количество: 1) Mega Seeder 1 (Количество: 1)
Торрент-статистика

Создавать темы 03-Май-2015 16:28

[Цитировать]

Da Vinci Learning: Эко-2. Энергия / E2. Energy [серии 1-6 из 6]
Год выпуска: 2007
Страна: США, Content Real LLC
Жанр: Документальный
Продолжительность: 5x~00:25:34
Перевод: Профессиональный (одноголосый)
Режиссер: Тэд Феттинг / Tad Fettig
Качество: SATRip
Формат: AVI
Видео кодек: XviD
Аудио кодек: AC3
Видео: 704x400 25fps ~1950 Kbps
Аудио: AC3 2ch, 48kHz, 192 kbps
Описание: Было ли это сознательное решение или минутная слабость? Как прогресс мог оказаться важнее человечества? Как могло освоение энергии, принесшее нам подъем, стать началом падения? Быть может мы только часть Вселенной, а не её центр? Решения в Вашингтоне влияют на горные ледники в Перу, вырубка лесов Амазонии на жару в Париже, электростанции в Китае на воздух в Лос-Анжелесе. Нам необходимо увидеть в задачах, казавшихся непреодолимыми, повод к обновлению и переменам. Эко в квадрате - экологически чистая экономика
Список серий:

01. Пожинаем ветер / Harvesting the Wind

В Миннесоте ветер все больше используют как источник энергии - и дохода для местных фермеров. Последуют ли за ней остальные штаты?

02. Энергия для развивающегося мира / Energy for a Developing World

Бангладешская компания распространяет солнечные батареи и установки для биогаза, приобщая к энергетической революции женщин и бедняков.

03. Строим дороги / Paving the Way

Только в Америке, почти 70 процентов потребляемой нефти, приходится на автомобили. Может ли эффективная конструкция автомобиля смягчить экологический ущерб, вызванный нашим любимым детищем? General Motors представляет супер-гибридное транспортное средства, а технология фирмы Файберфордж показывает последние результаты в достижениях ультра-легких материалов для изготовления автомобиля.

04. Выращивая энергию / Growing Energy

В ответ на нефтяной кризис 1970-х годов, Бразилия создаёт отечественное производство этанола. Что мы можем узнать из необычайного успеха Бразилии с этанолом, и можно ли другие страны последовать этому примеру.

05. Штатные решения / State of Resolve

Может ли политик и сторонник прогрессивных видов энергии Калифорнии возглавить общенациональное движение в сторону более чистой энергии? Могут ли замечательные законы, которые провел губернатор Калифорнии Арнольд Шварценеггер, чтобы регулировать выбросы парниковых газов, поднять репутацию экологического лидера по всей стране, а, возможно, и мира

06. Уголь и атом: проблема или решение? / Coal & Nuclear: Problem or Solution?

Могут ли возобновляемые источники энергии, биотопливо, солнечная, ветровая и другие источники энергии быть альтернативы для ископаемых видов топлива? Можно ли игнорировать вездесущность угля и возможностей мощи ядерного топлива, несмотря на множество недостатков?

MediaInfo:

Format : AVI
Format/Info : Audio Video Interleave
File size : 394 MiB
Duration : 25mn 34s
Overall bit rate : 2 156 Kbps
Writing application : VirtualDubMod 1.5.10.3 | www.virtualdub-fr.org || (build 2550/release)
Writing library : VirtualDubMod build 2550/release
Video
ID : 0
Format : MPEG-4 Visual
Format profile : Advanced Simple@L5
Format settings, BVOP : 2
Format settings, QPel : Yes
Format settings, GMC : 3 warppoints
Format settings, Matrix : Default (H.263)
Codec ID : XVID
Codec ID/Hint : XviD
Duration : 25mn 34s
Bit rate : 1 954 Kbps
Width : 704 pixels
Height : 400 pixels
Display aspect ratio : 16:9
Frame rate : 25.000 fps
Color space : YUV
Chroma subsampling : 4:2:0
Bit depth : 8 bits
Scan type : Progressive
Compression mode : Lossy
Bits/(Pixel*Frame) : 0.278
Stream size : 357 MiB (91%)
Writing library : XviD 1.2.1 (UTC 2008-12-04)
Audio
ID : 1
Format : AC-3
Format/Info : Audio Coding 3
Mode extension : CM (complete main)
Format settings, Endianness : Big
Codec ID : 2000
Duration : 25mn 34s
Bit rate mode : Constant
Bit rate : 192 Kbps
Channel(s) : 2 channels
Channel positions : Front: L R
Sampling rate : 48.0 KHz
Compression mode : Lossy
Stream size : 35.1 MiB (9%)
Alignment : Split accross interleaves
Interleave, duration : 40 ms (1.00 video frame)
Interleave, preload duration : 500 ms
Эко-2. Энергия / E2. Energy
Эко-2. Архитектура влияния / E2. Intervention Architecture
Эко-2. Дизайн / E2.Design


Последний раз редактировалось: skorpionN (2015-10-02 08:49), всего редактировалось 5 раз(а)
[Профиль] [ЛС]

skorpionN ®

Пол:

Стаж: 1 год 8 месяцев

Сообщений: 591



Награды: 4 (Подробнее)

Mega Seeder 3 (Количество: 1) Mega Seeder 1 (Количество: 1) Mega Seeder 2 (Количество: 1)
Торрент-статистика

Создавать темы 03-Май-2015 16:33 (спустя 4 минуты)

[Цитировать]

От неугомонный. Уже прибыл
[Профиль] [ЛС]
Кто просматривает тему:

Форум Тема Автор Размер
Da Vinci Learning Da Vinci Learning: BBC: Джимми Дохерти в Саду Дарвина / Jimmy Doherty in Darwin's Garden [серии 1-3 из 3] (Мет Барретт) [2009 г., Документальный, научно-познавательный, SATRip] skorpionN 2.43 GB
Da Vinci Learning Da Vinci Learning: BBC: Машина, которая нас создала / The Machine That Made Us (Патрик МакГрэйди / Patrick McGrady) [2008 г., Документальный, история, SATRip] skorpionN 971 MB
Da Vinci Learning Da Vinci Learning: BBC: Музыка простых чисел / The Music of the Primes [серии 1-3 из 3] (Kieran Smyth) [2006 г., Документальный, научно-познавательный, исследования, гипотезы, SATRip] skorpionN 1.1 GB
Da Vinci Learning Da Vinci Learning: BBC: Невидимое простым глазом / Beyond The Naked Eye [серии 1-3 из 3] (Rosalind Bain, Jessica Barrington) [2002 г., Документальный, научно-познавательный, исследования, гипотезы,... skorpionN 1.21 GB
Da Vinci Learning Da Vinci Learning: Зигзаги (Причуды) науки / Quirky science [13 выпусков из 13] (Lee Thean-jeen, Mimi Soeteman, Karan Kow) [2013 г., Документальный, познавательный, история науки, техники SATRip] skorpionN 4.87 GB
Da Vinci Learning Da Vinci Learning: Крайности (Контрасты): свет и тьма / Extreme: Light and Dark (Udo Maurer) [2013 г., Документальный, образование, история, путешествия, SATRip] skorpionN 685 MB
Da Vinci Learning Da Vinci Learning: Музыка мозга / Music of the Brain (Fiona Cochrane) [2009 г., Документальный, человек и культура, SATRip] skorpionN 876 MB
Da Vinci Learning Da Vinci Learning: Плазма: новая заря / Plasma. Ultimate Aurora (Энди Касагранд / Andy Casagrande, Томас Лукас / Thomas Lucas) [2013 г., Документальный, научно-популярный, физика и пространство,... skorpionN 716 MB
Показать сообщения:    

Текущее время: Сегодня 22:22

Часовой пояс: GMT



Вы не можете начинать темы
Вы не можете отвечать на сообщения
Вы не можете редактировать свои сообщения
Вы не можете удалять свои сообщения
Вы не можете голосовать в опросах
Вы не можете прикреплять файлы к сообщениям
Вы не можете скачивать файлы