Da Vinci Learning: Эко-2. Архитектура влияния / E2. Intervention Architecture (Тэд Феттинг / Tad Fettig) [2012 г., Документальный, SATRip]

 
Автор Сообщение

skorpionN ®

Пол:

Стаж: 1 год 8 месяцев

Сообщений: 591



Награды: 4 (Подробнее)

Top Releaser 2 (Количество: 1) Mega Seeder 2 (Количество: 1) Mega Seeder 3 (Количество: 1)
Торрент-статистика

Создавать темы 04-Май-2015 12:38

[Цитировать]

Da Vinci Learning: Эко-2. Архитектура влияния / E2. Intervention Architecture
Год выпуска: 2012
Страна: США, Content Real LLC
Жанр: Документальный
Продолжительность: 00:55:50
Перевод: Профессиональный (одноголосый)
Режиссер: Тэд Феттинг / Tad Fettig
Описание: "Архитектура влияния" отслеживает пять проектов, которые получили престижную Премию Ага-хана за Архитектуру, которые охватывают этические и философские критерии и есть основополагающими в требованиях к этой премии.
В течение одного последующего часа e2 пересекает земной шар, посещающая разнообразные проекты такие как проект восстановления заболоченных мест в Саудовской Аравии, оживление французского Колониального объекта наследия в Тунисе, мост в Китае, который повторно соединил сообщество и стал культурным центром деревни.
В конце наших путешествий мы понимаем, что мы - единый мир и, что будущее может быть сделано лучше.
Качество: SATRip
Формат: AVI
Видео кодек: XviD
Аудио кодек: AC3
Видео: 704x400 25fps ~1950 Kbps
Аудио: AC3 2ch, 48kHz, 192 kbps

Скриншоты


MediaInfo:

Format : AVI
Format/Info : Audio Video Interleave
File size : 859 MiB
Duration : 55mn 50s
Overall bit rate : 2 152 Kbps
Writing application : VirtualDubMod 1.5.10.3 | www.virtualdub-fr.org || (build 2550/release)
Writing library : VirtualDubMod build 2550/release
Video
ID : 0
Format : MPEG-4 Visual
Format profile : Advanced Simple@L5
Format settings, BVOP : 2
Format settings, QPel : Yes
Format settings, GMC : 3 warppoints
Format settings, Matrix : Default (H.263)
Codec ID : XVID
Codec ID/Hint : XviD
Duration : 55mn 50s
Bit rate : 1 950 Kbps
Width : 704 pixels
Height : 400 pixels
Display aspect ratio : 16:9
Frame rate : 25.000 fps
Color space : YUV
Chroma subsampling : 4:2:0
Bit depth : 8 bits
Scan type : Progressive
Compression mode : Lossy
Bits/(Pixel*Frame) : 0.277
Stream size : 779 MiB (91%)
Writing library : XviD 1.2.1 (UTC 2008-12-04)
Audio
ID : 1
Format : AC-3
Format/Info : Audio Coding 3
Mode extension : CM (complete main)
Format settings, Endianness : Big
Codec ID : 2000
Duration : 55mn 50s
Bit rate mode : Constant
Bit rate : 192 Kbps
Channel(s) : 2 channels
Channel positions : Front: L R
Sampling rate : 48.0 KHz
Compression mode : Lossy
Stream size : 76.7 MiB (9%)
Alignment : Split accross interleaves
Interleave, duration : 40 ms (1.00 video frame)
Interleave, preload duration : 500 ms
Эко-2. Энергия / E2. Energy
Эко-2. Архитектура влияния / E2. Intervention Architecture
Эко-2. Дизайн / E2.Design
[Профиль] [ЛС]
Кто просматривает тему:

Форум Тема Автор Размер
Da Vinci Learning Da Vinci Learning: BBC: Джимми Дохерти в Саду Дарвина / Jimmy Doherty in Darwin's Garden [серии 1-3 из 3] (Мет Барретт) [2009 г., Документальный, научно-познавательный, SATRip] skorpionN 2.43 GB
Da Vinci Learning Da Vinci Learning: BBC: Машина, которая нас создала / The Machine That Made Us (Патрик МакГрэйди / Patrick McGrady) [2008 г., Документальный, история, SATRip] skorpionN 971 MB
Da Vinci Learning Da Vinci Learning: BBC: Музыка простых чисел / The Music of the Primes [серии 1-3 из 3] (Kieran Smyth) [2006 г., Документальный, научно-познавательный, исследования, гипотезы, SATRip] skorpionN 1.1 GB
Da Vinci Learning Da Vinci Learning: BBC: Невидимое простым глазом / Beyond The Naked Eye [серии 1-3 из 3] (Rosalind Bain, Jessica Barrington) [2002 г., Документальный, научно-познавательный, исследования, гипотезы,... skorpionN 1.21 GB
Da Vinci Learning Da Vinci Learning: Зигзаги (Причуды) науки / Quirky science [13 выпусков из 13] (Lee Thean-jeen, Mimi Soeteman, Karan Kow) [2013 г., Документальный, познавательный, история науки, техники SATRip] skorpionN 4.87 GB
Da Vinci Learning Da Vinci Learning: Крайности (Контрасты): свет и тьма / Extreme: Light and Dark (Udo Maurer) [2013 г., Документальный, образование, история, путешествия, SATRip] skorpionN 685 MB
Da Vinci Learning Da Vinci Learning: Музыка мозга / Music of the Brain (Fiona Cochrane) [2009 г., Документальный, человек и культура, SATRip] skorpionN 876 MB
Da Vinci Learning Da Vinci Learning: Плазма: новая заря / Plasma. Ultimate Aurora (Энди Касагранд / Andy Casagrande, Томас Лукас / Thomas Lucas) [2013 г., Документальный, научно-популярный, физика и пространство,... skorpionN 716 MB
Показать сообщения:    

Текущее время: Сегодня 20:35

Часовой пояс: GMT



Вы не можете начинать темы
Вы не можете отвечать на сообщения
Вы не можете редактировать свои сообщения
Вы не можете удалять свои сообщения
Вы не можете голосовать в опросах
Вы не можете прикреплять файлы к сообщениям
Вы не можете скачивать файлы