Da Vinci Learning: Что нам дала индустриальная революция / What The Industrial Revolution Did for Us [серии 1-6 из 6] (Симон Бекер / Simon Baker, Билли Пинк / Billy Pink, Билли Парк / Billy Park, Джонатан Хассид/Jonathan Hassid) [2004 г., Докум

 
Автор Сообщение

skorpionN ®

Пол:

Стаж: 1 год 8 месяцев

Сообщений: 581



Награды: 4 (Подробнее)

Mega Seeder 1 (Количество: 1) Top Releaser 2 (Количество: 1) Mega Seeder 3 (Количество: 1)
Торрент-статистика

Создавать темы 12-Ноя-2015 14:39

[Цитировать]

Da Vinci Learning: Что нам дала индустриальная революция / What The Industrial Revolution Did for Us [серии 1-6 из 6]
Год выпуска: 2004
Страна: Великобритания, BBC
Жанр: Документальный, архитектура, строительство, промышленность
Продолжительность: 6x~00:29:00
Перевод: Профессиональный (одноголосый)
Режиссер: Симон Бекер / Simon Baker, Билли Пинк / Billy Pink, Билли Парк / Billy Park, Джонатан Хассид / Jonathan Hassid
В ролях: Дэн Крикшэнк / Dan Cruickshank
Качество: SATRip
Формат: AVI
Видео кодек: XviD
Аудио кодек: AC3
Видео: 704x400 25fps ~1800 Kbps
Аудио: AC3 2ch, 48kHz, 192 kbps
Описание: Многое в современном мире существует благодаря достижениям промышленной революции: от чайника, в котором мы кипятим воду, до офисов, в которых мы работаем. Ведущий этого шести-серийного документального фильма, историк архитектуры Дэн Крикшэнк рассказывает о преобразованиях, произошедших в 19-ом веке в науке, технике и политике и изменивших жизнь каждого человека.
Список серий:

01. Материальный мир / Material World

К невероятным достижениям промышленной революции относятся не только первый ткацкий станок и паровой двигатель, но и стетоскоп, консервная банка и даже фото-копировальный аппарат. Поиски истоков этой революции приводят в самое неожиданное место: за чайные столики Британии Георгианской эпохи, где аппетит к хорошей жизни привел к созданию нашего современного материального мира.

02. Чудо механизмы / Working Wonders

Образ жизни рабочего человека в 21-ом веке - густонаселенные города, автоматизированные заводы, офисная суета с девяти до пяти - уходит корнями в новшества и монументальные преобразования промышленной революции. Передача расскажет об интересных и зачастую неожиданных открытиях, заложивших фундамент для современного уклада рабочей жизни: от атомных электростанций до офисных копировальных машин.

03. Полный вперёд / On The Move

В 1750-ом году транспорт был настолько же незамысловат, как и во времена Римской империи. Менее, чем сто лет спустя, Великобритания стала мировым транспортным центром. Передача рассказывает о том, как это произошло, и кого стоит благодарить за появление в Великобритании первых приличных дорог, изобретение первого автомобиля, железнодорожного локомотива и парового двигателя.

04. Современная медицина / Modern Medicine

Во время начала промышленной революции, врачебная практика находилась на уровне средневековья. Болезни имели широкое распространение, а средняя продолжительность жизни составляла 36 лет. Эта удивительная история о пионерах здравого смысла и науки, бросивших вызов старому порядку вещей, о первых клинических опытах по проведению вакцинации против смертельной болезни и об изобретении ключевого инструмента диагностики, стетоскопа.

05. Военная машина / War Machine

Индустриальная революция изменила не только наш образ жизни. Некоторые величайшие умы применили принципы индустриализации к проблеме ведения войны. Последствия этого ощущались и за пределами поля боя. Например. Если бы не война, мы бы не узнали о консервированных бобах.

06. Городская жизнь / City Living

Повседневная жизнь британцев веками оставалась неизменной. Дома были, в основном, сельского типа и функционального назначения, а с идеями декоративного и комфортного интерьера была знакома только горстка привилегированной знати. Промышленная революция возвестила появление среднего класса и навсегда преобразила дома британцев.

MediaInfo:

Format : AVI
Format/Info : Audio Video Interleave
File size : 414 MiB
Duration : 29mn 1s
Overall bit rate : 1 995 Kbps
Writing application : TMPGEnc Video Mastering Works 5 Version. 5.0.6.38
Writing library : TMPGEnc Video Mastering Works 5 Version. 5.0.6.38
Video
ID : 0
Format : MPEG-4 Visual
Format profile : Advanced Simple@L5
Format settings, BVOP : 2
Format settings, QPel : No
Format settings, GMC : No warppoints
Format settings, Matrix : Default (H.263)
Muxing mode : Packed bitstream
Codec ID : XVID
Codec ID/Hint : XviD
Duration : 29mn 1s
Bit rate : 1 795 Kbps
Width : 704 pixels
Height : 400 pixels
Display aspect ratio : 16:9
Frame rate : 25.000 fps
Color space : YUV
Chroma subsampling : 4:2:0
Bit depth : 8 bits
Scan type : Progressive
Compression mode : Lossy
Bits/(Pixel*Frame) : 0.255
Stream size : 373 MiB (90%)
Writing library : XviD 73
Audio
ID : 1
Format : AC-3
Format/Info : Audio Coding 3
Mode extension : CM (complete main)
Format settings, Endianness : Big
Codec ID : 2000
Duration : 29mn 1s
Bit rate mode : Constant
Bit rate : 192 Kbps
Channel(s) : 2 channels
Channel positions : Front: L R
Sampling rate : 48.0 KHz
Bit depth : 16 bits
Compression mode : Lossy
Stream size : 39.9 MiB (10%)
Alignment : Aligned on interleaves
Interleave, duration : 240 ms (6.00 video frames)
Interleave, preload duration : 224 ms
[Профиль] [ЛС]
Кто просматривает тему:

Форум Тема Автор Размер
Da Vinci Learning Da Vinci Learning: BBC: Джимми Дохерти в Саду Дарвина / Jimmy Doherty in Darwin's Garden [серии 1-3 из 3] (Мет Барретт) [2009 г., Документальный, научно-познавательный, SATRip] skorpionN 2.43 GB
Da Vinci Learning Da Vinci Learning: BBC: Машина, которая нас создала / The Machine That Made Us (Патрик МакГрэйди / Patrick McGrady) [2008 г., Документальный, история, SATRip] skorpionN 971 MB
Da Vinci Learning Da Vinci Learning: BBC: Музыка простых чисел / The Music of the Primes [серии 1-3 из 3] (Kieran Smyth) [2006 г., Документальный, научно-познавательный, исследования, гипотезы, SATRip] skorpionN 1.1 GB
Da Vinci Learning Da Vinci Learning: BBC: Невидимое простым глазом / Beyond The Naked Eye [серии 1-3 из 3] (Rosalind Bain, Jessica Barrington) [2002 г., Документальный, научно-познавательный, исследования, гипотезы,... skorpionN 1.21 GB
Da Vinci Learning Da Vinci Learning: Зигзаги (Причуды) науки / Quirky science [13 выпусков из 13] (Lee Thean-jeen, Mimi Soeteman, Karan Kow) [2013 г., Документальный, познавательный, история науки, техники SATRip] skorpionN 4.87 GB
Da Vinci Learning Da Vinci Learning: Крайности (Контрасты): свет и тьма / Extreme: Light and Dark (Udo Maurer) [2013 г., Документальный, образование, история, путешествия, SATRip] skorpionN 685 MB
Da Vinci Learning Da Vinci Learning: Музыка мозга / Music of the Brain (Fiona Cochrane) [2009 г., Документальный, человек и культура, SATRip] skorpionN 876 MB
Da Vinci Learning Da Vinci Learning: Плазма: новая заря / Plasma. Ultimate Aurora (Энди Касагранд / Andy Casagrande, Томас Лукас / Thomas Lucas) [2013 г., Документальный, научно-популярный, физика и пространство,... skorpionN 716 MB
Показать сообщения:    

Текущее время: Сегодня 18:01

Часовой пояс: GMT



Вы не можете начинать темы
Вы не можете отвечать на сообщения
Вы не можете редактировать свои сообщения
Вы не можете удалять свои сообщения
Вы не можете голосовать в опросах
Вы не можете прикреплять файлы к сообщениям
Вы не можете скачивать файлы