Dвaдцaть двe miнyты (Baciлiй Ceрikoв) [2014, Россия, боевик, DVD9] R5 Original Rus

 
Автор Сообщение

TorrentFilm ®

Пол:

Стаж: 2 года

Сообщений: 7741



Награды: Нет

Торрент-статистика

Создавать темы 01-Янв-2016 00:25

[Цитировать]

-22 минуты-«Своих не бросаем» -Страна: Россия
Студия: Централ Партнершип
Жанр: боевик
Год выпуска: 2014
Мировая премьера: 8 мая 2014
Российская премьера: 8 мая 2014, «Централ Партнершип»
Дата выхода DVD: 10 июня 2014, «Lizard Cinema Trade»
Дата выхода Blu-Ray: 10 июня 2014, «Lizard Cinema Trade»
Продолжительность: 01:19:29
Перевод: Оригинал [Лицензия]
Cубтитры: нет
Оригинальная аудиодорожка: русский-Режиссер: Василий Сериков-В ролях: Макар Запорожский, Денис Никифоров, Виктор Сухоруков, Екатерина Маликова, Гаэль Камилинди, Александр Галибин, Владислав Демин, Ибрагим Тооре, Софья Козко, Иван Породнов-Описание: Морпех — первогодок Саня Ежов оказывается среди пиратов на захваченном танкере. Он знает — товарищи не бросят. Ему нужно выжить и помочь своим, когда начнется штурм. Фильм основан на реальных событиях 5 мая 2010 года, когда морские пехотинцы БПК «Маршал Шапошников» освободили захваченный в водах Аденского залива российский танкер «Московский университет». У них было только 22 минуты без права на ошибку…-Бонусы: нет- -Релиз группы: -Качество: DVD9 R5
Формат: DVD-Video
Видео кодек: MPEG2
Аудио кодек: AC3 + DTS
Видео: PAL 16:9 (720x576(0.627)) MPEG Video, 25,000 кадр/сек, 6502 Кбит/сек
Аудио #1: Russian (Dolby AC3, 6 ch) 448 Кбит/сек, 48,0 КГц
Аудио #2: Russian (DTS, 5 ch) 768 Кбит/сек, 48,0 КГц--

DVDInfo

Title: 22.minuty.2014.DVD9
Size: 4.60 Gb ( 4 818 634,00 KBytes ) - DVD-9
Enabled regions: 1, 2, 3, 4, 5, 6, 7, 8
VTS_01 :
Play Length: 00:00:25+{00:00:25}+{00:00:25}
Video: PAL 4:3 (720x576) VBR
Audio:
Russian (Dolby AC3, 6 ch)
English (Dolby AC3, 6 ch)
English (Dolby AC3, 6 ch)
VTS_02 :
Play Length: 01:19:29
Video: PAL 16:9 (720x576) VBR, Auto Pan&Scan, Auto Letterboxed
Audio:
Russian (Dolby AC3, 6 ch)
Russian (DTS, 5 ch)
* Menus Information *
VIDEO_TS Menu
Video:
PAL 16:9 (720x576) VBR
Auto Pan&Scan, Auto Letterboxed
English Language Unit :
Title Menu
VTS_01 Menu
Video:
PAL 16:9 (720x576) VBR
Auto Letterboxed
Audio:
Not specified (Dolby AC3, 2 ch)
English Language Unit :
Root Menu
Chapter (PTT) Menu
VTS_02 Menu
Video:
PAL 4:3 (720x576) VBR
English Language Unit :
Root Menu
Audio Menu
Chapter (PTT) Menu

MediaInfo

Общее
Полное имя : D:\Новинки 2014\22.minuty.2014.DVD9\VIDEO_TS\VTS_02_2.VOB
Формат : MPEG-PS
Размер файла : 1024 Мбайт
Продолжительность : 18 м.
Режим общего битрейта : Переменный
Общий поток : 7861 Кбит/сек
Видео
Идентификатор : 224 (0xE0)
Формат : MPEG Video
Версия формата : Version 2
Профиль формата : Main@Main
Параметр BVOP формата : Да
Параметр матрицы формата : Выборочная
Параметр GOP формата : M=3, N=12
Продолжительность : 18 м.
Вид битрейта : Переменный
Битрейт : 6502 Кбит/сек
Максимальный битрейт : 8500 Кбит/сек
Ширина : 720 пикселей
Высота : 576 пикселей
Соотношение сторон : 16:9
Частота кадров : 25,000 кадров/сек
Стандарт вещания : PAL
Цветовое пространство : YUV
Субдискретизация насыщенности : 4:2:0
Битовая глубина : 8 бит
Тип развёртки : Прогрессивная
Метод сжатия : С потерями
Бит/(Пиксели*Кадры) : 0.627
Временной код первого кадра : 01:19:07:01
Оригинал временного кода : Group of pictures header
Размер потока : 847 Мбайт (83%)
Аудио #1
Идентификатор : 189 (0xBD)-128 (0x80)
Формат : AC-3
Формат/Информация : Audio Coding 3
Расширение режима : CM (complete main)
Параметр Endianness формата : Big
Режим смешивания : DVD-Video
Продолжительность : 18 м.
Вид битрейта : Постоянный
Битрейт : 448 Кбит/сек
Каналы : 6 каналов
Расположение каналов : Front: L C R, Side: L R, LFE
Частота : 48,0 КГц
Битовая глубина : 16 бит
Метод сжатия : С потерями
Задержка видео : -432 мс.
Размер потока : 58,4 Мбайт (6%)
Аудио #2
Идентификатор : 189 (0xBD)-137 (0x89)
Формат : DTS
Формат/Информация : Digital Theater Systems
Режим : 16
Параметр Endianness формата : Big
Режим смешивания : DVD-Video
Продолжительность : 18 м.
Вид битрейта : Постоянный
Битрейт : 755 Кбит/сек
Каналы : 6 каналов
Расположение каналов : Front: L C R, Side: L R, LFE
Частота : 48,0 КГц
Битовая глубина : 24 бит
Метод сжатия : С потерями
Задержка видео : -475 мс.
Размер потока : 98,3 Мбайт (10%)

Скриншоты меню

Скриншоты фильма


-
-Раздача от группы:
[Профиль] [ЛС]
Кто просматривает тему:

Показать сообщения:    

Текущее время: Сегодня 10:26

Часовой пояс: GMT



Вы не можете начинать темы
Вы не можете отвечать на сообщения
Вы не можете редактировать свои сообщения
Вы не можете удалять свои сообщения
Вы не можете голосовать в опросах
Вы не можете прикреплять файлы к сообщениям
Вы не можете скачивать файлы