(Melodic Hard Rock) Cruzh - Cruzh - 2016 [FLAC, image +.cue, lossless]

 
Автор Сообщение

sergej644 ®

Пол:

Стаж: 4 года 11 месяцев

Сообщений: 6043

Откуда: Soviet Union



Награды: Нет

Торрент-статистика

Создавать темы 15-Сен-2016 13:47

[Цитировать]

---
Год издания: 2016
Страна: Sweden
Жанр: Melodic Hard Rock
Продолжительность: 00:49:03-Лейбл издания: Frontiers Records
Страна-выпуска диска: Italy
Номер по каталогу: FRCD747-Формат: FLAC
Битрейт аудио: Lossless
Тип рипа: image +.cue
Наличие сканов в содержимом раздачи: да
-

Трэклист


01.In N' Out Of Love(4:28)
02.First Cruzh(3:26)
03.Aim For The Head(4:11)
04.Anything For You(4:28)
05.Survive(3:56)
06.Stay(4:05)
07.Hard To Get(5:04)
08.You(4:37)
09.Set Me Free(3:26)
10.Before I Walk Alone(3:50)
11.Straight From My Heart(7:32)
-

Лог создания рипа

Exact Audio Copy V1.1 from 23. June 2015
EAC extraction logfile from 9. September 2016, 23:14
Cruzh / Cruzh
Used drive  : PIONEER BD-RW   BDR-209D   Adapter: 0  ID: 5
Read mode               : Secure
Utilize accurate stream : Yes
Defeat audio cache      : Yes
Make use of C2 pointers : No
Read offset correction                      : 667
Overread into Lead-In and Lead-Out          : No
Fill up missing offset samples with silence : Yes
Delete leading and trailing silent blocks   : No
Null samples used in CRC calculations       : Yes
Used interface                              : Installed external ASPI interface
Used output format              : User Defined Encoder
Selected bitrate                : 768 kBit/s
Quality                         : High
Add ID3 tag                     : No
Command line compressor         : C:\Program Files (x86)\Exact Audio Copy\FLAC\FLAC.EXE
Additional command line options : -6 -V -T "ARTIST=%artist%" -T "TITLE=%title%" -T "ALBUM=%albumtitle%" -T "DATE=%year%" -T "TRACKNUMBER=%tracknr%" -T "GENRE=%genre%" -T "COMMENT=%comment%" -T "BAND=%albuminterpret%" -T "ALBUMARTIST=%albuminterpret%" -T "COMPOSER=%composer%" %haslyrics%--tag-from-file=LYRICS="%lyricsfile%"%haslyrics% -T "DISCNUMBER=%cdnumber%" -T "TOTALDISCS=%totalcds%" -T "TOTALTRACKS=%numtracks%" %hascover%--picture="%coverfile%"%hascover% %source% -o %dest%
TOC of the extracted CD
     Track |   Start  |  Length  | Start sector | End sector
    ---------------------------------------------------------
        1  |  0:00.00 |  4:27.69 |         0    |    20093
        2  |  4:27.69 |  3:25.73 |     20094    |    35541
        3  |  7:53.67 |  4:10.66 |     35542    |    54357
        4  | 12:04.58 |  4:28.03 |     54358    |    74460
        5  | 16:32.61 |  3:56.37 |     74461    |    92197
        6  | 20:29.23 |  4:04.69 |     92198    |   110566
        7  | 24:34.17 |  5:04.02 |    110567    |   133368
        8  | 29:38.19 |  4:37.04 |    133369    |   154147
        9  | 34:15.23 |  3:26.08 |    154148    |   169605
       10  | 37:41.31 |  3:49.56 |    169606    |   186836
       11  | 41:31.12 |  7:32.20 |    186837    |   220756
Range status and errors
Selected range
     Filename E:\MUSIC\Cruzh - Cruzh.wav
     Peak level 100.0 %
     Extraction speed 1.9 X
     Range quality 100.0 %
     Test CRC 2286BA1A
     Copy CRC 2286BA1A
     Copy OK
No errors occurred
AccurateRip summary
Track  1  not present in database
Track  2  not present in database
Track  3  not present in database
Track  4  not present in database
Track  5  not present in database
Track  6  not present in database
Track  7  not present in database
Track  8  not present in database
Track  9  not present in database
Track 10  not present in database
Track 11  not present in database
None of the tracks are present in the AccurateRip database
End of status report

Индексная карта (non-compilant .cue)

REM GENRE AOR
REM DATE 2016
REM DISCID 9E0B7F0B
REM COMMENT "ExactAudioCopy v1.1"
PERFORMER "Cruzh"
TITLE "Cruzh"
FILE "Cruzh - Cruzh.flac" WAVE
  TRACK 01 AUDIO
    TITLE "In N' Out Of Love"
    PERFORMER "Cruzh"
    INDEX 01 00:00:00
  TRACK 02 AUDIO
    TITLE "First Cruzh"
    PERFORMER "Cruzh"
    INDEX 01 04:27:69
  TRACK 03 AUDIO
    TITLE "Aim For The Head"
    PERFORMER "Cruzh"
    INDEX 01 07:53:67
  TRACK 04 AUDIO
    TITLE "Anything For You"
    PERFORMER "Cruzh"
    INDEX 01 12:04:58
  TRACK 05 AUDIO
    TITLE "Survive"
    PERFORMER "Cruzh"
    INDEX 01 16:32:61
  TRACK 06 AUDIO
    TITLE "Stay"
    PERFORMER "Cruzh"
    INDEX 01 20:29:23
  TRACK 07 AUDIO
    TITLE "Hard To Get"
    PERFORMER "Cruzh"
    INDEX 01 24:34:17
  TRACK 08 AUDIO
    TITLE "You"
    PERFORMER "Cruzh"
    INDEX 01 29:38:19
  TRACK 09 AUDIO
    TITLE "Set Me Free"
    PERFORMER "Cruzh"
    INDEX 01 34:15:23
  TRACK 10 AUDIO
    TITLE "Before I Walk Alone"
    PERFORMER "Cruzh"
    INDEX 01 37:41:31
  TRACK 11 AUDIO
    TITLE "Straight From My Heart"
    PERFORMER "Cruzh"
    INDEX 01 41:31:12

для ознакомления:

https://www.youtube.com/watch?v=67g8Slc4RgE-Дебютный альбом! Влияние Def Leppard, Toto, FM, Winger, FireHouse and Bryan Adams!
Line Up:
Dennis Butabi Borg – bass
Anton Joensson – rhythm, lead and acoustic guitars on all tracks, backing vocals
Tony Andersson – lead vocals on all tracks, keyboards
With:
Erik Wiss – piano on “Anything For You”, intro on “In N’ Out of Love”
Louisian Boltner – drums on all tracks
Mattias Silfver – backing vocals on all tracks
Martin Johansson – backing vocals on “Anything For You”
Patrik Norén – backing vocals on “Aim For The Head”
--
[Профиль] [ЛС]
Показать сообщения:    

Текущее время: Сегодня 18:32

Часовой пояс: GMT



Вы не можете начинать темы
Вы не можете отвечать на сообщения
Вы не можете редактировать свои сообщения
Вы не можете удалять свои сообщения
Вы не можете голосовать в опросах
Вы не можете прикреплять файлы к сообщениям
Вы не можете скачивать файлы