Comedy Woman (эфир от 2016.09.09) (2016) WEB-DLRip

 
Автор Сообщение

Russian Mafia ®

Пол:

Стаж: 1 год 8 месяцев

Сообщений: 4253



Награды: 10 (Подробнее)

Top Releaser 2 (Количество: 1) За внесенный вклад в развитие сайта (Количество: 1) Top Releaser 5 (Количество: 1)
Торрент-статистика

Создавать темы 17-Сен-2016 04:42

[Цитировать]

Информация о фильме
Оригинальное название: Comedy Woman. Новый формат
Жанр: Юмористическое шоу
Дата выхода в эфир: 09.09.2016
Ведущий: Наталья Еприкян
В ролях: Наталья Еприкян, Екатерина Скулкина, Екатерина Варнава, Мария Кравченко, Полина Сибагатуллина, Татьяна Морозова, Надежда Сысоева, Надежда Ангарская, Марина Федункив
Описание: Развлекательное шоу, в котором пресловутая женская логика оказывается как нельзя кстати. Девушки с выдающимся юмором и не менее выдающимися формами не позволят заскучать самому закоренелому снобу и накажут смехом даже законченного шовиниста. Сomedy Woman - место, в котором приятно побывать и не стыдно об этом вспомнить! Особенно зажигательные танцы, очень смешные шутки, а также жизненные истории, в которых каждая дама точно узнает себя и своих подруг.
Выпущено: ТНТ, "Comedy Club Production"
Продолжительность: 00:49:52
Язык: Русский
Файл
Кодек: XviD
Качество: WEB-DLRip
Видео: XviD, 1700 Кбит/с, 704x400
Аудио: AC3, 2 ch, 192 Кбит/с

Инфо файл

Общее
Полное имя : D:ВидеоComedy Woman.(09.09.2016)WEB-DLRip by Vovan366(ExKinoRay).avi
Формат : AVI
Формат/Информация : Audio Video Interleave
Размер файла : 678 Мбайт
Продолжительность : 49 м.
Общий поток : 1902 Кбит/сек
Программа кодирования : VirtualDubMod 1.5.10.3 | www.virtualdub-fr.org || (build 2550/release)
Библиотека кодирования : VirtualDubMod build 2550/release
Видео
Идентификатор : 0
Формат : MPEG-4 Visual
Профиль формата : Advanced Simple@L5
Параметр BVOP формата : 2
Параметр QPel формата : Нет
Параметр GMC формата : Без точки перехода
Параметр матрицы формата : Выборочная
Идентификатор кодека : XVID
Идентификатор кодека/Подсказка : XviD
Продолжительность : 49 м.
Битрейт : 1700 Кбит/сек
Ширина : 704 пикселя
Высота : 400 пикселей
Соотношение сторон : 16:9
Частота кадров : 25,000 кадров/сек
Цветовое пространство : YUV
Субдискретизация насыщенности : 4:2:0
Битовая глубина : 8 бит
Тип развёртки : Прогрессивная
Метод сжатия : С потерями
Бит/(Пиксели*Кадры) : 0.241
Размер потока : 606 Мбайт (89%)
Библиотека кодирования : XviD 73
Аудио
Идентификатор : 1
Формат : AC-3
Формат/Информация : Audio Coding 3
Расширение режима : CM (complete main)
Параметр Endianness формата : Big
Идентификатор кодека : 2000
Продолжительность : 49 м.
Вид битрейта : Постоянный
Битрейт : 192 Кбит/сек
Каналы : 2 канала
Расположение каналов : Front: L R
Частота : 48,0 КГц
Битовая глубина : 16 бит
Метод сжатия : С потерями
Размер потока : 68,5 Мбайт (10%)
Выравнивание : Разделение по промежуткам
Продолжительность промежутка : 40 мс. (1,00 видеокадр)
Время предзагрузки промежутка : 500 мс.

Скриншоты



[Профиль] [ЛС]
Показать сообщения:    

Текущее время: Сегодня 01:08

Часовой пояс: GMT



Вы не можете начинать темы
Вы не можете отвечать на сообщения
Вы не можете редактировать свои сообщения
Вы не можете удалять свои сообщения
Вы не можете голосовать в опросах
Вы не можете прикреплять файлы к сообщениям
Вы не можете скачивать файлы