Comedy Woman. Новый сезон [Эфир от 09.10] (2015) SATRip

 
Автор Сообщение

Russian Mafia ®

Пол:

Стаж: 1 год 8 месяцев

Сообщений: 4257



Награды: 10 (Подробнее)

Top Releaser 3 (Количество: 1) Top Releaser 5 (Количество: 1) Mega Seeder 2 (Количество: 1)
Торрент-статистика

Создавать темы 09-Окт-2015 13:33

[Цитировать]

Информация о фильме
Название: Comedy Woman
Год выхода: 2015
Жанр: Юмористическое шоу
Режиссер: Дмитрий Хрусталёв
В ролях: Дмитрий Хрусталев, Наталья Еприкян, Екатерина Скулкина, Екатерина Варнава, Мария Кравченко, Полина Сибагатуллина, Екатерина Баранова, Татьяна Морозова, Елена Борщёва, Наталия Медведева, Надежда Сысоева, Надежда Ангарская
О фильме:
Развлекательное шоу, в котором пресловутая женская логика оказывается как нельзя кстати. Девушки с выдающимся юмором и не менее выдающимися формами не позволят заскучать самому закоренелому снобу и накажут смехом даже законченного шовиниста. Сomedy Woman - место, в котором приятно побывать и не стыдно об этом вспомнить! Особенно зажигательные танцы, очень смешные шутки, а также жизненные истории, в которых каждая дама точно узнает себя и своих подруг.
Страна: Россия
Студия: ТНТ
Продолжительность: 00:47:43
Перевод: Не требуется
Файл
Кодек: XviD
Качество: SATRip
Видео: 720x400, 25.00 fps, 1800 kbps
Звук: 48000 Hz, 128 kbps, 2 Channel

Скриншоты

MediaInfo

Общее
Полное имя : D:KW.2015.10.09.SATRip.avi
Формат : AVI
Формат/Информация : Audio Video Interleave
Размер файла : 619 Мбайт
Продолжительность : 44 м.
Общий поток : 1936 Кбит/сек
Программа кодирования : VirtualDubMod 1.5.10.3 | www.virtualdub-fr.org || (build 2550/release)
Библиотека кодирования : VirtualDub build 29808/release
Видео
Идентификатор : 0
Формат : MPEG-4 Visual
Профиль формата : Advanced Simple@L5
Параметр BVOP формата : 3
Параметр QPel формата : Нет
Параметр GMC формата : Без точки перехода
Параметр матрицы формата : Default (H.263)
Идентификатор кодека : XVID
Идентификатор кодека/Подсказка : XviD
Продолжительность : 44 м.
Битрейт : 1798 Кбит/сек
Ширина : 720 пикселей
Высота : 400 пикселей
Соотношение сторон : 16:9
Частота кадров : 25,000 кадров/сек
Цветовое пространство : YUV
Субдискретизация насыщенности : 4:2:0
Битовая глубина : 8 бит
Тип развёртки : Прогрессивная
Метод сжатия : С потерями
Бит/(Пиксели*Кадры) : 0.250
Размер потока : 575 Мбайт (93%)
Библиотека кодирования : XviD 1.2.1 (UTC 2008-12-04)
Аудио
Идентификатор : 1
Формат : MPEG Audio
Версия формата : Version 1
Профиль формата : Layer 3
Идентификатор кодека : 55
Идентификатор кодека/Подсказка : MP3
Продолжительность : 44 м.
Вид битрейта : Постоянный
Битрейт : 128 Кбит/сек
Каналы : 2 канала
Частота : 48,0 КГц
Метод сжатия : С потерями
Размер потока : 41,0 Мбайт (7%)
Выравнивание : Соединение по промежуткам
Продолжительность промежутка : 40 мс. (1,00 видеокадр)
Время предзагрузки промежутка : 504 мс.
Библиотека кодирования : LAME3.99r
Настройки программы : -m s -V 4 -q 2 -lowpass 17 -b 128
[Профиль] [ЛС]
Показать сообщения:    

Текущее время: Сегодня 18:43

Часовой пояс: GMT



Вы не можете начинать темы
Вы не можете отвечать на сообщения
Вы не можете редактировать свои сообщения
Вы не можете удалять свои сообщения
Вы не можете голосовать в опросах
Вы не можете прикреплять файлы к сообщениям
Вы не можете скачивать файлы