Coldplay - Saturday Night Live 03-05-2014 [2014, Alternative rock, HDTV 1080i]

 
Автор Сообщение

reversefile ®

Пол:

Стаж: 4 года 5 месяцев

Сообщений: 842

Откуда: ReverseFile.org



Награды: Нет

Торрент-статистика

Создавать темы 11-Авг-2014 19:04

[Цитировать]

Coldplay - Saturday Night Live 03-05-2014--
-
-Жанр: Alternative rock
Продолжительность: 04:23+04:18
Год выпуска: 2014--01. Magic
02. A Sky Full of Stars--Качество: HDTV 1080i
Контейнер: TS
Видео кодек: MPEG2
Аудио кодек: AC3
Видео: MPEG-2, 1920x1080, 29.97 fps, 13.9 Mbps
Аудио: AC-3, 48.0 KHz, 384 Kbps (6 Ch.)-- -
-

Отчёт MediaInfo / BDInfo

GeneralID : 1 (0x1)Complete name : C:\Users\admin\Desktop\Coldplay - Magic (Saturday Night Live 03-05-2014) 1080i.tsFormat : MPEG-TSFile size : 473 MiBDuration : 4mn 23sOverall bit rate mode : VariableOverall bit rate : 15.1 MbpsMaximum Overall bit rate : 35.5 Mbps
VideoID : 4113 (0x1011)Menu ID : 1 (0x1)Format : MPEG VideoFormat version : Version 2Format profile : Main@HighFormat settings, BVOP : YesFormat settings, Matrix : CustomFormat settings, GOP : VariableCodec ID : 2Duration : 4mn 23sBit rate mode : VariableBit rate : 13.9 MbpsMaximum bit rate : 24.0 MbpsWidth : 1 920 pixelsHeight : 1 080 pixelsDisplay aspect ratio : 16:9Active Format Description : Full frame 16:9 imageFrame rate : 29.970 fpsColor space : YUVChroma subsampling : 4:2:0Bit depth : 8 bitsScan type : InterlacedScan order : Top Field FirstCompression mode : LossyBits/(Pixel*Frame) : 0.224Time code of first frame : 00:28:40;10Time code source : Group of pictures headerStream size : 438 MiB (92%)
AudioID : 4352 (0x1100)Menu ID : 1 (0x1)Format : AC-3Format/Info : Audio Coding 3Mode extension : CM (complete main)Format settings, Endianness : BigCodec ID : 129Duration : 4mn 23sBit rate mode : ConstantBit rate : 384 KbpsChannel(s) : 6 channelsChannel positions : Front: L C R, Side: L R, LFESampling rate : 48.0 KHzBit depth : 16 bitsCompression mode : LossyDelay relative to video : -129msStream size : 12.1 MiB (3%)Language : English
Text #1ID : 4113 (0x1011)-CC1Menu ID : 1 (0x1)Format : EIA-608Muxing mode : A/53 / DTVCC TransportMuxing mode, more info : Muxed in Video #1Duration : 4mn 23sBit rate mode : ConstantStream size : 0.00 Byte (0%)
Text #2ID : 4113 (0x1011)-1Menu ID : 1 (0x1)Format : EIA-708Muxing mode : A/53 / DTVCC TransportMuxing mode, more info : Muxed in Video #1Duration : 4mn 23sBit rate mode : ConstantStream size : 0.00 Byte (0%)
Text #3ID : 4113 (0x1011)-3Menu ID : 1 (0x1)Format : EIA-708Muxing mode : A/53 / DTVCC TransportMuxing mode, more info : Muxed in Video #1Duration : 4mn 23sBit rate mode : ConstantStream size : 0.00 Byte (0%)
[Профиль] [ЛС]
Кто просматривает тему:

Показать сообщения:    

Текущее время: Сегодня 16:57

Часовой пояс: GMT



Вы не можете начинать темы
Вы не можете отвечать на сообщения
Вы не можете редактировать свои сообщения
Вы не можете удалять свои сообщения
Вы не можете голосовать в опросах
Вы не можете прикреплять файлы к сообщениям
Вы не можете скачивать файлы