(Rock) Cold Chisel - Chisel (The Best Of Cold Chisel) - 1991, FLAC (image+.cue), lossless

 
Автор Сообщение

sergej644 ®

Пол:

Стаж: 4 года 11 месяцев

Сообщений: 6035

Откуда: Soviet Union



Награды: Нет

Торрент-статистика

Создавать темы 04-Янв-2015 12:25

[Цитировать]

Cold Chisel / Chisel (The Best Of Cold Chisel)
Жанр: Rock
Носитель: CD
Страна-производитель диска (релиза): Germany
Год издания: 1991
Издатель (лейбл): WEA/EastWest
Номер по каталогу: 9031-75021-2
Страна исполнителя (группы): Australia
Аудиокодек: FLAC (*.flac)
Тип рипа: image+.cue
Битрейт аудио: lossless
Продолжительность: 01:12:43
Наличие сканов в содержимом раздачи: да
Треклист:

Треклист

01. Standing On The Outside
02. Rising Sun
03. You Got Nothing I Want
04. No Sense
05. Misfits
06. Breakfast At Sweethearts
07. My Baby
08. Bow River
09. Choir Girl
10. Cheap Wine
11. Forever Now
12. Saturday Night
13. Flame Trees
14. Merry-Go-Round
15. Star Hotel
16. Goodbye (Astrid Goodbye)
17. When The War Is Over
18. Khe Sanh

Лог создания рипа

Exact Audio Copy V1.0 beta 3 from 29. August 2011
EAC extraction logfile from 4. January 2015, 0:19
Cold Chisel / Chisel (The Best Of Cold Chisel)
Used drive  : HL-DT-STDVDRAM GH22NS40   Adapter: 4  ID: 0
Read mode               : Secure
Utilize accurate stream : Yes
Defeat audio cache      : Yes
Make use of C2 pointers : No
Read offset correction                      : 667
Overread into Lead-In and Lead-Out          : No
Fill up missing offset samples with silence : Yes
Delete leading and trailing silent blocks   : No
Null samples used in CRC calculations       : Yes
Used interface                              : Native Win32 interface for Win NT & 2000
Used output format              : User Defined Encoder
Selected bitrate                : 1024 kBit/s
Quality                         : High
Add ID3 tag                     : No
Command line compressor         : C:\Program Files\FLAC\flac.exe
Additional command line options : -V -8 -T "Date=%year%" -T "Genre=%genre%" %source%
TOC of the extracted CD
     Track |   Start  |  Length  | Start sector | End sector
    ---------------------------------------------------------
        1  |  0:00.00 |  2:56.05 |         0    |    13204
        2  |  2:56.05 |  3:27.22 |     13205    |    28751
        3  |  6:23.27 |  3:14.13 |     28752    |    43314
        4  |  9:37.40 |  3:00.70 |     43315    |    56884
        5  | 12:38.35 |  4:19.62 |     56885    |    76371
        6  | 16:58.22 |  4:10.73 |     76372    |    95194
        7  | 21:09.20 |  4:00.27 |     95195    |   113221
        8  | 25:09.47 |  5:49.48 |    113222    |   139444
        9  | 30:59.20 |  3:16.20 |    139445    |   154164
       10  | 34:15.40 |  3:19.65 |    154165    |   169154
       11  | 37:35.30 |  4:27.30 |    169155    |   189209
       12  | 42:02.60 |  4:21.47 |    189210    |   208831
       13  | 46:24.32 |  4:24.55 |    208832    |   228686
       14  | 50:49.12 |  3:39.18 |    228687    |   245129
       15  | 54:28.30 |  3:53.02 |    245130    |   262606
       16  | 58:21.32 |  5:48.30 |    262607    |   288736
       17  | 64:09.62 |  4:26.53 |    288737    |   308739
       18  | 68:36.40 |  4:07.25 |    308740    |   327289
Range status and errors
Selected range
     Filename I:\Rips\Cold Chisel - Chisel (The Best Of Cold Chisel).wav
     Peak level 97.7 %
     Extraction speed 2.1 X
     Range quality 100.0 %
     Test CRC 3A68E1B7
     Copy CRC 3A68E1B7
     Copy OK
No errors occurred
AccurateRip summary
Track  1  accurately ripped (confidence 2)  [BE5F77E3]  (AR v2)
Track  2  accurately ripped (confidence 2)  [E6EE3C08]  (AR v2)
Track  3  accurately ripped (confidence 2)  [B42EBE63]  (AR v2)
Track  4  accurately ripped (confidence 2)  [191808EE]  (AR v2)
Track  5  accurately ripped (confidence 2)  [96815420]  (AR v2)
Track  6  accurately ripped (confidence 2)  [014B66C7]  (AR v2)
Track  7  accurately ripped (confidence 2)  [C40FF09D]  (AR v2)
Track  8  accurately ripped (confidence 2)  [8070767C]  (AR v2)
Track  9  accurately ripped (confidence 2)  [E4075D22]  (AR v2)
Track 10  accurately ripped (confidence 2)  [0FA5AD0B]  (AR v2)
Track 11  accurately ripped (confidence 2)  [A1387FDE]  (AR v2)
Track 12  accurately ripped (confidence 2)  [97B11609]  (AR v2)
Track 13  accurately ripped (confidence 2)  [79E606D2]  (AR v2)
Track 14  accurately ripped (confidence 2)  [616D6C44]  (AR v2)
Track 15  accurately ripped (confidence 2)  [C5C1F43C]  (AR v2)
Track 16  accurately ripped (confidence 2)  [1E230D4A]  (AR v2)
Track 17  accurately ripped (confidence 2)  [28D59387]  (AR v2)
Track 18  accurately ripped (confidence 2)  [ABEC1A6F]  (AR v2)
All tracks accurately ripped
End of status report

AccurateRip

[CUETools log; Date: 04.01.2015 0:21:17; Version: 2.1.4]
[CTDB TOCID: xi7LH8UpMtOlLxQ4BX1I9.OXMKk-] found.
Track | CTDB Status
  1   | (11/11) Accurately ripped
  2   | (11/11) Accurately ripped
  3   | (11/11) Accurately ripped
  4   | (11/11) Accurately ripped
  5   | (11/11) Accurately ripped
  6   | (11/11) Accurately ripped
  7   | (11/11) Accurately ripped
  8   | (11/11) Accurately ripped
  9   | (11/11) Accurately ripped
10   | (11/11) Accurately ripped
11   | (11/11) Accurately ripped
12   | (11/11) Accurately ripped
13   | (11/11) Accurately ripped
14   | (11/11) Accurately ripped
15   | (11/11) Accurately ripped
16   | (11/11) Accurately ripped
17   | (11/11) Accurately ripped
18   | (11/11) Accurately ripped
[AccurateRip ID: 002cff50-0262797c-eb110b12] found.
Track   [  CRC   |   V2   ] Status
01     [02b2b186|be5f77e3] (07+02/37) Accurately ripped
02     [193998df|e6ee3c08] (07+02/36) Accurately ripped
03     [d620c34e|b42ebe63] (07+02/37) Accurately ripped
04     [b9dc7968|191808ee] (07+02/37) Accurately ripped
05     [11b64425|96815420] (07+02/37) Accurately ripped
06     [21bd8d98|014b66c7] (07+02/37) Accurately ripped
07     [379a7305|c40ff09d] (07+02/37) Accurately ripped
08     [8c54c50f|8070767c] (07+02/36) Accurately ripped
09     [d451664b|e4075d22] (07+02/38) Accurately ripped
10     [7fdb1c12|0fa5ad0b] (07+02/38) Accurately ripped
11     [208c25db|a1387fde] (07+02/38) Accurately ripped
12     [873096d3|97b11609] (07+02/37) Accurately ripped
13     [99f5dccd|79e606d2] (07+02/37) Accurately ripped
14     [8c29c1a9|616d6c44] (07+02/37) Accurately ripped
15     [3003d7e9|c5c1f43c] (07+02/36) Accurately ripped
16     [41de6c2e|1e230d4a] (07+02/36) Accurately ripped
17     [ddd78585|28d59387] (07+02/37) Accurately ripped
18     [34724d18|abec1a6f] (07+02/34) Accurately ripped
Offsetted by 664:
01     [8cc5b35e] (19/37) Accurately ripped
02     [bc8d03c7] (18/36) Accurately ripped
03     [5be65756] (19/37) Accurately ripped
04     [ca22d4b0] (19/37) Accurately ripped
05     [8df1e34d] (19/37) Accurately ripped
06     [3b388e00] (19/37) Accurately ripped
07     [de2db31d] (19/37) Accurately ripped
08     [32ddfd37] (18/36) Accurately ripped
09     [3f11e71b] (19/38) Accurately ripped
10     [c6dfdb72] (19/38) Accurately ripped
11     [bf0bcc43] (19/38) Accurately ripped
12     [c9223833] (18/37) Accurately ripped
13     [5f65e2d5] (18/37) Accurately ripped
14     [372136b1] (18/37) Accurately ripped
15     [fa7aac21] (17/36) Accurately ripped
16     [af0b79be] (17/36) Accurately ripped
17     [84373d35] (18/37) Accurately ripped
18     [a612231c] (16/34) Accurately ripped
Track Peak [ CRC32  ] [W/O NULL] [  LOG   ]
--   97,7 [3A68E1B7] [868E62A5]   CRC32
01   97,7 [86320187] [4F6B0E81]
02   96,5 [6F11B660] [242DE3EC]
03   97,7 [9457BBF8] [9C424399]
04   97,7 [4C0D09BC] [92F8EE82]
05   97,4 [2222CC30] [34E320BE]
06   91,1 [28266353] [AD59CDE4]
07   97,7 [E5F4D4F5] [DE6484E9]
08   92,4 [AF5267F0] [3646F782]
09   97,7 [9B2D0D2D] [D48A8191]
10   97,7 [7AC1D171] [762B6311]
11   97,6 [9E7FEAD4] [033EDDDD]
12   89,9 [11C61980] [45891D32]
13   97,7 [561B1BE8] [BB47A995]
14   97,7 [9B25D826] [2DE85CF2]
15   97,7 [A199DFF1] [83D49A2F]
16   97,7 [AB143375] [45D62978]
17   97,6 [BFAC5C37] [CF98A68D]
18   91,7 [2EAC6B7A] [45718EED]

Back,Booklet,CD

Скриншот спектра частот

Об исполнителе (группе)

http://en.wikipedia.org/wiki/Cold_Chisel
[Профиль] [ЛС]
Кто просматривает тему:

Показать сообщения:    

Текущее время: Сегодня 09:56

Часовой пояс: GMT



Вы не можете начинать темы
Вы не можете отвечать на сообщения
Вы не можете редактировать свои сообщения
Вы не можете удалять свои сообщения
Вы не можете голосовать в опросах
Вы не можете прикреплять файлы к сообщениям
Вы не можете скачивать файлы