CNN: Шестидесятые / The Sixties [серии 1-10 из 10] (Кристофер Коуэн / Christopher G. Cowen, Кирк Сэдаски / Kirk Saduski) [2013 г., Документальный, история, SATRip]

 
Автор Сообщение

skorpionN ®

Пол:

Стаж: 1 год 8 месяцев

Сообщений: 579



Награды: 4 (Подробнее)

Mega Seeder 3 (Количество: 1) Mega Seeder 1 (Количество: 1) Mega Seeder 2 (Количество: 1)
Торрент-статистика

Создавать темы 19-Апр-2016 17:16

[Цитировать]

CNN: Шестидесятые / The Sixties [серии 1-10 из 10]
Год выпуска: 2013
Страна: США, Herzog & Company, Playtone
Жанр: Документальный, история
Продолжительность: 10x~00:40:30
Перевод: Профессиональный (двухголосый)
Режиссер: Кристофер Коуэн / Christopher G. Cowen, Кирк Сэдаски / Kirk Saduski
В ролях: Том Хэнкс, Мишель Филлипс, Глория Стейнем, Джей Роач, Филип Розенталь, Карл Райнер, Салли Филд, Кэрол Барнетт, Петула Кларк, Базз Олдрин, Билл Косби, Питер Койот, Роберт Калп, Марло Томас
Описание: Война во Вьетнаме, сексуальная революция, движение хиппи, равноправие для афроамериканцев, путешествие на Луну, убийство президента Кеннеди, мировая слава The Beatles, "холодная война", массовое распространение телевидения – все это, и многое другое, случилось в 60-е, и до сих пор оказывает влияние на наш мир.
Список серий:
01. Убийство Кеннеди / The Assassination of President Kennedy
02. Холодная война: Мир на грани / Cold War: World on the Brink
03. Британское вторжение / The British Invasion
04. Долгий путь к свободе / A Long March to Freedom
05. Расцвет телевидения / When Television Came of Age
06. Война во Вьетнаме / The War in Vietnam
07. Секс, наркотики и рок-н-ролл / Sex, Drugs and Rock N' Roll
08. 1968 / 1968
09. Времена меняются / The Times They Are A-Changin'
10. Космическая гонка / The Space Race

Доп. информация: Награды: 2 номинации на Праймтайм премию "Эмми" 2014 за эпизод "The Assassination of President Kennedy" (лучший документальный фильм, лучший монтаж); номинация на Праймтайм премию "Эмми" 2015 за лучший документальный сериал; номинация на лучший сериал International Documentary Association 2014; номинация на лучший монтаж Hollywood Post Alliance 2014.
Качество: SATRip
Формат: AVI
Видео кодек: XviD
Аудио кодек: AC3
Видео: 704x400 25fps 1800 kbps
Аудио: AC3 2ch, 48kHz, 192 kbps

Скриншоты


MediaInfo:

Format : AVI
Format/Info : Audio Video Interleave
File size : 578 MiB
Duration : 40mn 28s
Overall bit rate : 1 997 Kbps
Writing application : TMPGEnc Video Mastering Works 5 Version. 5.0.6.38
Writing library : TMPGEnc Video Mastering Works 5 Version. 5.0.6.38
Video
ID : 0
Format : MPEG-4 Visual
Format profile : Advanced Simple@L5
Format settings, BVOP : 2
Format settings, QPel : No
Format settings, GMC : No warppoints
Format settings, Matrix : Default (H.263)
Muxing mode : Packed bitstream
Codec ID : XVID
Codec ID/Hint : XviD
Duration : 40mn 28s
Bit rate : 1 797 Kbps
Width : 720 pixels
Height : 400 pixels
Display aspect ratio : 16:9
Frame rate : 25.000 fps
Color space : YUV
Chroma subsampling : 4:2:0
Bit depth : 8 bits
Scan type : Progressive
Compression mode : Lossy
Bits/(Pixel*Frame) : 0.250
Stream size : 520 MiB (90%)
Writing library : XviD 73
Audio
ID : 1
Format : AC-3
Format/Info : Audio Coding 3
Mode extension : CM (complete main)
Format settings, Endianness : Big
Codec ID : 2000
Duration : 40mn 28s
Bit rate mode : Constant
Bit rate : 192 Kbps
Channel(s) : 2 channels
Channel positions : Front: L R
Sampling rate : 48.0 KHz
Bit depth : 16 bits
Compression mode : Lossy
Stream size : 55.6 MiB (10%)
Alignment : Aligned on interleaves
Interleave, duration : 240 ms (6.00 video frames)
Interleave, preload duration : 224 ms
CNN: Шестидесятые / The Sixties
CNN: Семидесятые / The Seventies
[Профиль] [ЛС]

GENE

Стаж: 2 месяца 2 дня

Сообщений: 1



Награды: Нет

Торрент-статистика

Создавать темы 30-Сен-2016 19:44 (спустя 5 месяцев 11 дней)

[Цитировать]

Очень ну - очень хороший сайт и сериал!!!!!!! СПАСИБО !!!!!
[Профиль] [ЛС]
Кто просматривает тему:

Показать сообщения:    

Текущее время: Сегодня 11:55

Часовой пояс: GMT



Вы не можете начинать темы
Вы не можете отвечать на сообщения
Вы не можете редактировать свои сообщения
Вы не можете удалять свои сообщения
Вы не можете голосовать в опросах
Вы не можете прикреплять файлы к сообщениям
Вы не можете скачивать файлы