CNN: Семидесятые / The Seventies [серии 1-8 из 8] (Кристофер Коуэн / Christopher G. Cowen, Кирк Сэдаски / Kirk Saduski) [2015 г., Документальный, история, SATRip]

 
Автор Сообщение

skorpionN ®

Пол:

Стаж: 1 год 8 месяцев

Сообщений: 592



Награды: 4 (Подробнее)

Top Releaser 2 (Количество: 1) Mega Seeder 2 (Количество: 1) Mega Seeder 1 (Количество: 1)
Торрент-статистика

Создавать темы 19-Апр-2016 17:16

[Цитировать]

CNN: Семидесятые / The Seventies [серии 1-8 из 8]
Год выпуска: 2015
Страна: США, Herzog & Company, Playtone
Жанр: Документальный, история
Продолжительность: 8x~00:41:40
Перевод: Профессиональный (двухголосый)
Режиссер: Кристофер Коуэн / Christopher G. Cowen, Кирк Сэдаски / Kirk Saduski
В ролях: John Chancellor, Walter Cronkite, David Brinkley
Описание: "Семидесятые" подхватывает некоторые сюжеты первой части проекта тех же создателей - "Шестидесятых" - и переносит нас в эпоху групп Blondie и KISS, когда радикальные феминистки и борцы за права сексуальных меньшинств впервые громко заявляют о своём существовании. В то же самое время впервые появляется международный терроризм, а развитие телевидения превращает телеэфир в самый мощный инструмент политики и пропаганды. Джон Леннон и Йоко Оно, Дэвид Боуи и Led Zeppelin, Ричард Никсон, юный Майкл Джексон и Джонни Кэш – герои 70-х до сих пор хорошо нам знакомы. Сериал погружает зрителей в мир хорошо узнаваемых и любимых образов, для многих связанных с детством – ведь именно поколение, рожденное в 70-х, сегодняшние 35-40 летние, играют наиболее активную роль в обществе.
Список серий:
01. Реальность на экране / Television Gets Real
02. США против Никсона / The United States vs. Nixon
03. Почётный мир / Peace with Honor
04. Что происходит / What's Goin' On
05. Положение в стране желает оставлять лучшего / The State of the Union Is Not Good
06. Террор дома и за рубежом / Terror at Home and Abroad
07. Битва полов / Battle of the Sexes
08. Преступления и культы / Crimes & Cults

Доп. информация: Номинация International Documentary Association 2015
Качество: SATRip
Формат: AVI
Видео кодек: XviD
Аудио кодек: AC3
Видео: 704x400 25fps 1800 kbps
Аудио: AC3 2ch, 48kHz, 192 kbps

Скриншоты


MediaInfo:

Format : AVI
Format/Info : Audio Video Interleave
File size : 595 MiB
Duration : 41mn 42s
Overall bit rate : 1 995 Kbps
Writing application : TMPGEnc Video Mastering Works 5 Version. 5.0.6.38
Writing library : TMPGEnc Video Mastering Works 5 Version. 5.0.6.38
Video
ID : 0
Format : MPEG-4 Visual
Format profile : Advanced Simple@L5
Format settings, BVOP : 2
Format settings, QPel : No
Format settings, GMC : No warppoints
Format settings, Matrix : Default (H.263)
Muxing mode : Packed bitstream
Codec ID : XVID
Codec ID/Hint : XviD
Duration : 41mn 42s
Bit rate : 1 796 Kbps
Width : 720 pixels
Height : 400 pixels
Display aspect ratio : 16:9
Frame rate : 25.000 fps
Color space : YUV
Chroma subsampling : 4:2:0
Bit depth : 8 bits
Scan type : Progressive
Compression mode : Lossy
Bits/(Pixel*Frame) : 0.249
Stream size : 536 MiB (90%)
Writing library : XviD 73
Audio
ID : 1
Format : AC-3
Format/Info : Audio Coding 3
Mode extension : CM (complete main)
Format settings, Endianness : Big
Codec ID : 2000
Duration : 41mn 41s
Bit rate mode : Constant
Bit rate : 192 Kbps
Channel(s) : 2 channels
Channel positions : Front: L R
Sampling rate : 48.0 KHz
Bit depth : 16 bits
Compression mode : Lossy
Stream size : 57.3 MiB (10%)
Alignment : Aligned on interleaves
Interleave, duration : 240 ms (6.00 video frames)
Interleave, preload duration : 224 ms

Внимание:

Раздача ведётся путём добавления новых серий; при каждом добавлении создаётся новый торрент. Чтобы начать докачку новой серии, пользователям необходимо сделать следующее:
- Остановить скачивание.
- Удалить старый торрент у себя из клиента (старые серии удалять не надо).
- Скачать новый торрент и запустить его у себя в клиенте вместо старого, при этом указать клиенту путь в старую папку куда и должно происходить скачивание новых серий.
Добавлено
08. Преступления и культы / Crimes & Cults
CNN: Шестидесятые / The Sixties
CNN: Семидесятые / The Seventies


Последний раз редактировалось: skorpionN (2016-04-23 19:42), всего редактировалось 2 раз(а)
[Профиль] [ЛС]

skorpionN ®

Пол:

Стаж: 1 год 8 месяцев

Сообщений: 592



Награды: 4 (Подробнее)

Mega Seeder 1 (Количество: 1) Mega Seeder 3 (Количество: 1) Top Releaser 2 (Количество: 1)
Торрент-статистика

Создавать темы 22-Апр-2016 04:49 (спустя 2 дня 11 часов)

[Цитировать]

Сезон окончен
[Профиль] [ЛС]
Кто просматривает тему:

Показать сообщения:    

Текущее время: Сегодня 14:58

Часовой пояс: GMT



Вы не можете начинать темы
Вы не можете отвечать на сообщения
Вы не можете редактировать свои сообщения
Вы не можете удалять свои сообщения
Вы не можете голосовать в опросах
Вы не можете прикреплять файлы к сообщениям
Вы не можете скачивать файлы