Clutch • Earth Rocker World Tour • Live in Denver [2013, Hard rock, Blues rock, Stoner rock, Southern rock, HDTV 1080i]

 
Автор Сообщение

reversefile ®

Пол:

Стаж: 4 года 5 месяцев

Сообщений: 842

Откуда: ReverseFile.org



Награды: Нет

Торрент-статистика

Создавать темы 11-Авг-2014 18:53

[Цитировать]




Жанр: Hard rock, Blues rock, Stoner rock, Southern rock
Продолжительность: 01:22:47
Год выпуска: 2013
Качество: HDTV 1080i
Контейнер: TS
Видео кодек: MPEG2
Аудио кодек: AC3
Видео: MPEG2 Video 1920x1080 29.97fps 11.4 Mbps
Аудио: Dolby AC3 48000Hz 6ch 384kbps

Треклист

Earth Rocker
Mr. Freedom
D.C. Sound Attack!
The Face
Book, Saddle, And Go
Cyborg Bette
The Regulator
The Mob Goes Wild
Unto The Breach
Gone Cold
Gravel Road
Burning Beard
Crucial Velocity
Oh, Isabella
The Wolf Man Kindly Requests…
ENCORE:
Electric Worry
One Eyed Dollar

Отчёт MediaInfo / BDInfo

GeneralID : 1 (0x1)Complete name : L:\Clutch - Earth Rocker World Tour - Live in Denver.tsFormat : MPEG-TSFile size : 7.18 GiBDuration : 1h 22mnOverall bit rate mode : VariableOverall bit rate : 12.4 Mbps
VideoID : 546 (0x222)Menu ID : 1 (0x1)Format : MPEG VideoFormat version : Version 2Format profile : Main@HighFormat settings, BVOP : NoFormat settings, Matrix : DefaultFormat settings, GOP : M=3, N=15Codec ID : 2Duration : 1h 22mnBit rate mode : VariableBit rate : 11.4 MbpsMaximum bit rate : 20.0 MbpsWidth : 1 920 pixelsHeight : 1 080 pixelsDisplay aspect ratio : 16:9Frame rate : 29.970 fpsColor space : YUVChroma subsampling : 4:2:0Bit depth : 8 bitsScan type : InterlacedScan order : Top Field FirstCompression mode : LossyBits/(Pixel*Frame) : 0.184Time code of first frame : 00:00:00;00Time code source : Group of pictures headerStream size : 6.60 GiB (92%)
AudioID : 545 (0x221)Menu ID : 1 (0x1)Format : AC-3Format/Info : Audio Coding 3Mode extension : CM (complete main)Format settings, Endianness : BigCodec ID : 129Duration : 1h 22mnBit rate mode : ConstantBit rate : 384 KbpsChannel(s) : 6 channelsChannel positions : Front: L C R, Side: L R, LFESampling rate : 48.0 KHzBit depth : 16 bitsCompression mode : LossyStream size : 227 MiB (3%)Language : English
[Профиль] [ЛС]
Кто просматривает тему:

Показать сообщения:    

Текущее время: Сегодня 05:00

Часовой пояс: GMT



Вы не можете начинать темы
Вы не можете отвечать на сообщения
Вы не можете редактировать свои сообщения
Вы не можете удалять свои сообщения
Вы не можете голосовать в опросах
Вы не можете прикреплять файлы к сообщениям
Вы не можете скачивать файлы