(Classic Rock, Oldies, Pop-Rock) Cliff Richard - Rock 'N' Roll Juvenile ? 1979 (Reissue, 1st press) - 1989 [FLAC, image+.cue, lossless]

 
Автор Сообщение

sergej644 ®

Пол:

Стаж: 4 года 11 месяцев

Сообщений: 6043

Откуда: Soviet Union



Награды: Нет

Торрент-статистика

Создавать темы 14-Дек-2015 17:17

[Цитировать]

-Cliff Richard / Rock 'N' Roll Juvenile 1979 (Reissue, 1st press)-- Год издания: 1989
Страна: UK
Жанр: Classic Rock, Oldies, Pop-Rock
Продолжительность: 00:44:15-Лейбл издания: EMI Records Ltd.
Номер по каталогу: CDP 792422 2
Формат: FLAC
Битрейт аудио: lossless
Тип рипа: image+.cue
Наличие сканов в содержимом раздачи: да
-

Трэклист


01. Monday Thru' Friday (03:49)
02. Doing Fine (03:09)
03. Cities May Fall (04:18)
04. You Know That I Love You (02:56)
05. My Luck Won't Change (04:14)
06. Rock 'N' Roll Juvenile (02:48)
07. Sci-Fi (03:48)
08. Fallin In Luv (03:12)
09. Carrie (03:46)
10. Hot Shot (03:26)
11. Language Of Love (04:41)
12. We Don't Talk Anymore (04:15)

Лог создания рипа

Exact Audio Copy V1.0 beta 3 from 29. August 2011
EAC extraction logfile from 29. April 2015, 20:24
Cliff Richard / Rock 'N' Roll Juvenile
Used drive  : PIONEER BD-RW   BDR-208D   Adapter: 5  ID: 0
Read mode               : Secure
Utilize accurate stream : Yes
Defeat audio cache      : Yes
Make use of C2 pointers : No
Read offset correction                      : 667
Overread into Lead-In and Lead-Out          : No
Fill up missing offset samples with silence : Yes
Delete leading and trailing silent blocks   : No
Null samples used in CRC calculations       : Yes
Used interface                              : Native Win32 interface for Win NT & 2000
Used output format : Internal WAV Routines
Sample format      : 44.100 Hz; 16 Bit; Stereo
TOC of the extracted CD
     Track |   Start  |  Length  | Start sector | End sector
    ---------------------------------------------------------
        1  |  0:00.00 |  3:48.65 |         0    |    17164
        2  |  3:48.65 |  3:08.47 |     17165    |    31311
        3  |  6:57.37 |  4:17.73 |     31312    |    50659
        4  | 11:15.35 |  2:55.12 |     50660    |    63796
        5  | 14:10.47 |  4:13.05 |     63797    |    82776
        6  | 18:23.52 |  2:47.05 |     82777    |    95306
        7  | 21:10.57 |  3:47.23 |     95307    |   112354
        8  | 24:58.05 |  3:11.27 |    112355    |   126706
        9  | 28:09.32 |  3:45.60 |    126707    |   143641
       10  | 31:55.17 |  3:25.25 |    143642    |   159041
       11  | 35:20.42 |  4:40.10 |    159042    |   180051
       12  | 40:00.52 |  4:14.03 |    180052    |   199104
Range status and errors
Selected range
     Filename D:\BlondStyle\Cliff Richard - Rock 'N' Roll Juvenile.wav
     Peak level 100.0 %
     Extraction speed 6.8 X
     Range quality 100.0 %
     Test CRC 90044EB2
     Copy CRC 90044EB2
     Copy OK
No errors occurred
AccurateRip summary
Track  1  accurately ripped (confidence 3)  [1EB4D0DA]  (AR v1)
Track  2  accurately ripped (confidence 3)  [D916053F]  (AR v1)
Track  3  accurately ripped (confidence 3)  [8FEE705B]  (AR v1)
Track  4  accurately ripped (confidence 3)  [0460CDFE]  (AR v1)
Track  5  accurately ripped (confidence 3)  [6A3AE690]  (AR v1)
Track  6  accurately ripped (confidence 3)  [FD90AFCF]  (AR v1)
Track  7  accurately ripped (confidence 3)  [84D87BF2]  (AR v1)
Track  8  accurately ripped (confidence 3)  [6C2CA1B4]  (AR v1)
Track  9  accurately ripped (confidence 3)  [616CA448]  (AR v1)
Track 10  accurately ripped (confidence 3)  [7EFF30AB]  (AR v1)
Track 11  accurately ripped (confidence 3)  [6FA77FA3]  (AR v1)
Track 12  accurately ripped (confidence 3)  [3300E0F2]  (AR v1)
All tracks accurately ripped
End of status report
---- CUETools DB Plugin V2.1.3
[CTDB TOCID: ZmwC5TMkxjYsUxTpRyM966nToIY-] disk not present in database, Submit result: ZmwC5TMkxjYsUxTpRyM966nToIY- has been uploaded

Индексная карта (non-compilant .cue)

REM GENRE "Rock 'N' Roll, Soft Rock, Pop Rock"
REM DATE 1979
REM DISCID 830A5E0C
REM COMMENT "ExactAudioCopy v1.0b3"
PERFORMER "Cliff Richard"
TITLE "Rock 'N' Roll Juvenile"
FILE "Cliff Richard - Rock 'N' Roll Juvenile.flac" WAVE
  TRACK 01 AUDIO
    TITLE "Monday Thru' Friday"
    PERFORMER "Cliff Richard"
    INDEX 01 00:00:00
  TRACK 02 AUDIO
    TITLE "Doing Fine"
    PERFORMER "Cliff Richard"
    INDEX 00 03:47:10
    INDEX 01 03:48:65
  TRACK 03 AUDIO
    TITLE "Cities May Fall"
    PERFORMER "Cliff Richard"
    INDEX 00 06:54:22
    INDEX 01 06:57:37
  TRACK 04 AUDIO
    TITLE "You Know That I Love You"
    PERFORMER "Cliff Richard"
    INDEX 01 11:15:35
  TRACK 05 AUDIO
    TITLE "My Luck Won't Change"
    PERFORMER "Cliff Richard"
    INDEX 00 14:09:67
    INDEX 01 14:10:47
  TRACK 06 AUDIO
    TITLE "Rock 'N' Roll Juvenile"
    PERFORMER "Cliff Richard"
    INDEX 01 18:23:52
  TRACK 07 AUDIO
    TITLE "Sci-Fi"
    PERFORMER "Cliff Richard"
    INDEX 00 21:08:72
    INDEX 01 21:10:57
  TRACK 08 AUDIO
    TITLE "Fallin In Luv"
    PERFORMER "Cliff Richard"
    INDEX 00 24:55:50
    INDEX 01 24:58:05
  TRACK 09 AUDIO
    TITLE "Carrie"
    PERFORMER "Cliff Richard"
    INDEX 00 28:06:10
    INDEX 01 28:09:32
  TRACK 10 AUDIO
    TITLE "Hot Shot"
    PERFORMER "Cliff Richard"
    INDEX 00 31:50:35
    INDEX 01 31:55:17
  TRACK 11 AUDIO
    TITLE "Language Of Love"
    PERFORMER "Cliff Richard"
    INDEX 00 35:17:15
    INDEX 01 35:20:42
  TRACK 12 AUDIO
    TITLE "We Don't Talk Anymore"
    PERFORMER "Cliff Richard"
    INDEX 00 39:58:67
    INDEX 01 40:00:52
--
[Профиль] [ЛС]
Показать сообщения:    

Текущее время: Сегодня 16:41

Часовой пояс: GMT



Вы не можете начинать темы
Вы не можете отвечать на сообщения
Вы не можете редактировать свои сообщения
Вы не можете удалять свои сообщения
Вы не можете голосовать в опросах
Вы не можете прикреплять файлы к сообщениям
Вы не можете скачивать файлы