(Hard Rock) Cinderella - Studio Albums (4) - 1986-1994, WAVPack (image + .cue), lossless

 
Автор Сообщение

sergej644 ®

Пол:

Стаж: 4 года 11 месяцев

Сообщений: 6042

Откуда: Soviet Union



Награды: Нет

Торрент-статистика

Создавать темы 25-Авг-2014 09:30

[Цитировать]

-Cinderella - Studio Albums (4)- Страна: USA || Жанр: Hard Rock || Год выпуска: 1986,1988,1990,1994 || Формат: WAVPack (image + .cue) || Битрейт аудио: lossless || Продолжительность: 03:07:24-

Cinderella - Night Songs 1986

Страна: USA
Год выпуска альбома: 1986
Страна изготовитель диска: Germany
Номер по каталогу: 830 076-2 M-1
Лейбл: Mercury
Продолжительность: 00:36:09


01. Night Songs (04:03)
02. Shake Me (03:44)
03. Nobody's Fool (04:49)
04. Nothin' For Nothin' (03:33)
05. Once Around The Ride (03:22)
06. Hell On Wheels (02:49)
07. Somebody Save Me (03:16)
08. In From The Outside (04:07)
09. Push, Push (02:52)
10. Back Home Again (03:30)

лог создания рипа

Exact Audio Copy V1.0 beta 3 from 29. August 2011
Отчёт EAC об извлечении, выполненном 29. сентября 2012, 10:20
Cinderella / Night Songs (Mercury, 830 076-2 M-1, Germany)
Дисковод: ASUS    DRW-1814BL   Adapter: 0  ID: 0
Режим чтения                 : Достоверность
Использование точного потока : Да
Отключение кэша аудио        : Да
Использование указателей C2  : Нет
Коррекция смещения при чтении                     : 6
Способность читать области Lead-in и Lead-out     : Нет
Заполнение пропущенных сэмплов тишиной            : Да
Удаление блоков с тишиной в начале и конце        : Нет
При вычислениях CRC использовались нулевые сэмплы : Да
Интерфейс                                         : Встроенный Win32-интерфейс для Win NT/2000
Выходной формат : Внутренние WAV-операции
Формат сэмплов  : 44.100 Гц; 16 бит; стерео
TOC извлечённого CD
     Трек |   Старт  | Длительность | Начальный сектор | Конечный сектор
    ---------------------------------------------------------------------
       1  |  0:00.32 |    4:03.68   |          32      |      18324
       2  |  4:04.25 |    3:44.12   |       18325      |      35136
       3  |  7:48.37 |    4:49.05   |       35137      |      56816
       4  | 12:37.42 |    3:33.63   |       56817      |      72854
       5  | 16:11.30 |    3:22.70   |       72855      |      88074
       6  | 19:34.25 |    2:49.25   |       88075      |     100774
       7  | 22:23.50 |    3:16.30   |      100775      |     115504
       8  | 25:40.05 |    4:07.32   |      115505      |     134061
       9  | 29:47.37 |    2:52.18   |      134062      |     146979
      10  | 32:39.55 |    3:30.22   |      146980      |     162751
Характеристики диапазона извлечения и сообщения об ошибках
Выбранный диапазон
     Имя файла G:\ley-barmaley\lossless-galaxy.ru\Cinderella - Night Songs (Mercury, 830 076-2 M-1, Germany).wav
     Пиковый уровень 84.1 %
     Скорость извлечения 3.8 X
     Качество диапазона 100.0 %
     CRC теста F183A3FF
     CRC копии F183A3FF
     Копирование... OK
Ошибок не произошло
AccurateRip: сводка
Трек  1  : извлечено точно (доверие 4)  [5668C670]  (AR v2)
Трек  2  : извлечено точно (доверие 4)  [A5B7B2B0]  (AR v2)
Трек  3  : извлечено точно (доверие 4)  [E38DF0A0]  (AR v2)
Трек  4  : извлечено точно (доверие 4)  [27599DBA]  (AR v2)
Трек  5  : извлечено точно (доверие 4)  [BD14F9F7]  (AR v2)
Трек  6  : извлечено точно (доверие 4)  [0AB36F28]  (AR v2)
Трек  7  : извлечено точно (доверие 4)  [D3B00C2D]  (AR v2)
Трек  8  : извлечено точно (доверие 4)  [98A06CD7]  (AR v2)
Трек  9  : извлечено точно (доверие 4)  [51633982]  (AR v2)
Трек 10  : извлечено точно (доверие 4)  [CBA88E9A]  (AR v2)
Все треки извлечены точно
Конец отчёта
---- CUETools DB Plugin V2.1.3
[CTDB TOCID: UUbDwKhvBYRXT44ySreGYp4Svt8-] found, Submit result: discs with pregaps not supported in this protocol version
[fe519a34] (163/163) Differs in 0 samples @
You can use CUETools to repair this rip.

содержание индексной карты *cue

REM GENRE "Hard Rock"
REM DATE 1986
REM DISCID 93087A0A
REM COMMENT "ExactAudioCopy v1.0b3"
PERFORMER "Cinderella"
TITLE "Night Songs (Mercury, 830 076-2 M-1, Germany)"
FILE "Cinderella - Night Songs (Mercury, 830 076-2 M-1, Germany).wv" WAVE
  TRACK 01 AUDIO
    TITLE "Night Songs"
    PERFORMER "Cinderella"
    INDEX 00 00:00:00
    INDEX 01 00:00:32
  TRACK 02 AUDIO
    TITLE "Shake Me"
    PERFORMER "Cinderella"
    INDEX 00 04:02:65
    INDEX 01 04:04:25
  TRACK 03 AUDIO
    TITLE "Nobody's Fool"
    PERFORMER "Cinderella"
    INDEX 00 07:46:60
    INDEX 01 07:48:37
  TRACK 04 AUDIO
    TITLE "Nothin' For Nothin'"
    PERFORMER "Cinderella"
    INDEX 00 12:35:67
    INDEX 01 12:37:42
  TRACK 05 AUDIO
    TITLE "Once Around The Ride"
    PERFORMER "Cinderella"
    INDEX 00 16:09:60
    INDEX 01 16:11:30
  TRACK 06 AUDIO
    TITLE "Hell On Wheels"
    PERFORMER "Cinderella"
    INDEX 00 19:32:35
    INDEX 01 19:34:25
  TRACK 07 AUDIO
    TITLE "Somebody Save Me"
    PERFORMER "Cinderella"
    INDEX 00 22:22:02
    INDEX 01 22:23:50
  TRACK 08 AUDIO
    TITLE "In From The Outside"
    PERFORMER "Cinderella"
    INDEX 00 25:38:17
    INDEX 01 25:40:05
  TRACK 09 AUDIO
    TITLE "Push, Push"
    PERFORMER "Cinderella"
    INDEX 00 29:46:45
    INDEX 01 29:47:37
  TRACK 10 AUDIO
    TITLE "Back Home Again"
    PERFORMER "Cinderella"
    INDEX 00 32:38:40
    INDEX 01 32:39:55

Cinderella - Long Cold Winter 1988

Страна: USA
Год выпуска альбома: 1988
Страна изготовитель диска: France
Номер по каталогу: 834 612-2
Лейбл: Mercury
Продолжительность: 00:44:13

01. Bad Seamstress Blues / Fallin' Apart At The Seams (05:20)
02. Gypsy Road (03:55)
03. Don't Know What You Got (Till It's Gone) (05:54)
04. The Last Mile (03:51)
05. Second Wind (03:59)
06. Long Cold Winter (05:24)
07. If You Don't Like It (04:10)
08. Coming Home (04:56)
09. Fire And Ice (03:22)
10. Take Me Back (03:17)

лог создания рипа

Exact Audio Copy V1.0 beta 3 from 29. August 2011
Отчёт EAC об извлечении, выполненном 29. сентября 2012, 12:10
Cinderella / Long Cold Winter (Mercury, 834 612-2, France)
Дисковод: ASUS    DRW-1814BL   Adapter: 0  ID: 0
Режим чтения                 : Достоверность
Использование точного потока : Да
Отключение кэша аудио        : Да
Использование указателей C2  : Нет
Коррекция смещения при чтении                     : 6
Способность читать области Lead-in и Lead-out     : Нет
Заполнение пропущенных сэмплов тишиной            : Да
Удаление блоков с тишиной в начале и конце        : Нет
При вычислениях CRC использовались нулевые сэмплы : Да
Интерфейс                                         : Встроенный Win32-интерфейс для Win NT/2000
Выходной формат : Внутренние WAV-операции
Формат сэмплов  : 44.100 Гц; 16 бит; стерео
TOC извлечённого CD
     Трек |   Старт  | Длительность | Начальный сектор | Конечный сектор
    ---------------------------------------------------------------------
       1  |  0:00.32 |    5:20.00   |          32      |      24031
       2  |  5:20.32 |    3:55.68   |       24032      |      41724
       3  |  9:16.25 |    5:54.47   |       41725      |      68321
       4  | 15:10.72 |    3:51.53   |       68322      |      85699
       5  | 19:02.50 |    3:59.07   |       85700      |     103631
       6  | 23:01.57 |    5:24.15   |      103632      |     127946
       7  | 28:25.72 |    4:10.48   |      127947      |     146744
       8  | 32:36.45 |    4:56.65   |      146745      |     169009
       9  | 37:33.35 |    3:22.27   |      169010      |     184186
      10  | 40:55.62 |    3:17.70   |      184187      |     199031
Характеристики диапазона извлечения и сообщения об ошибках
Выбранный диапазон
     Имя файла G:\ley-barmaley\lossless-galaxy.ru\Cinderella - Long Cold Winter (Mercury, 834 612-2, France).wav
     Пиковый уровень 97.7 %
     Скорость извлечения 2.7 X
     Качество диапазона 100.0 %
     CRC теста 00D0F69C
     CRC копии 00D0F69C
     Копирование... OK
Ошибок не произошло
AccurateRip: сводка
Трек  1  : извлечено точно (доверие 7)  [FF2467AD]  (AR v2)
Трек  2  : извлечено точно (доверие 7)  [641324BF]  (AR v2)
Трек  3  : извлечено точно (доверие 7)  [AE52A5E2]  (AR v2)
Трек  4  : извлечено точно (доверие 7)  [8C0CC8FB]  (AR v2)
Трек  5  : извлечено точно (доверие 7)  [04439DFF]  (AR v2)
Трек  6  : извлечено точно (доверие 7)  [09F7BB05]  (AR v2)
Трек  7  : извлечено точно (доверие 7)  [DC9D661E]  (AR v2)
Трек  8  : извлечено точно (доверие 7)  [E2414DD2]  (AR v2)
Трек  9  : извлечено точно (доверие 7)  [B4720E35]  (AR v2)
Трек 10  : извлечено точно (доверие 7)  [E40E8A3C]  (AR v2)
Все треки извлечены точно
Конец отчёта
---- CUETools DB Plugin V2.1.3
[CTDB TOCID: 4v.MxjDba8BQ9j9iZM9muA7a5y4-] found, Submit result: discs with pregaps not supported in this protocol version
[a5dce02a] (112/112) Differs in 0 samples @
You can use CUETools to repair this rip.

содержание индексной карты *cue

REM GENRE "Hard Rock"
REM DATE 1988
REM DISCID 860A5D0A
REM COMMENT "ExactAudioCopy v1.0b3"
PERFORMER "Cinderella"
TITLE "Long Cold Winter (Mercury, 834 612-2, France)"
FILE "Cinderella - Long Cold Winter (Mercury, 834 612-2, France).wv" WAVE
  TRACK 01 AUDIO
    TITLE "Bad Seamstress Blues / Fallin' Apart At The Seams"
    PERFORMER "Cinderella"
    INDEX 00 00:00:00
    INDEX 01 00:00:32
  TRACK 02 AUDIO
    TITLE "Gypsy Road"
    PERFORMER "Cinderella"
    INDEX 00 05:19:47
    INDEX 01 05:20:32
  TRACK 03 AUDIO
    TITLE "Don't Know What You Got (Till It's Gone)"
    PERFORMER "Cinderella"
    INDEX 01 09:16:25
  TRACK 04 AUDIO
    TITLE "The Last Mile"
    PERFORMER "Cinderella"
    INDEX 01 15:10:72
  TRACK 05 AUDIO
    TITLE "Second Wind"
    PERFORMER "Cinderella"
    INDEX 00 19:01:02
    INDEX 01 19:02:50
  TRACK 06 AUDIO
    TITLE "Long Cold Winter"
    PERFORMER "Cinderella"
    INDEX 00 23:00:60
    INDEX 01 23:01:57
  TRACK 07 AUDIO
    TITLE "If You Don't Like It"
    PERFORMER "Cinderella"
    INDEX 00 28:23:72
    INDEX 01 28:25:72
  TRACK 08 AUDIO
    TITLE "Coming Home"
    PERFORMER "Cinderella"
    INDEX 00 32:35:42
    INDEX 01 32:36:45
  TRACK 09 AUDIO
    TITLE "Fire And Ice"
    PERFORMER "Cinderella"
    INDEX 00 37:31:37
    INDEX 01 37:33:35
  TRACK 10 AUDIO
    TITLE "Take Me Back"
    PERFORMER "Cinderella"
    INDEX 00 40:53:42
    INDEX 01 40:55:62

Cinderella - Heartbreak Station 1990

Страна: USA
Год выпуска альбома: 1990
Страна изготовитель диска: France
Номер по каталогу: 848 018-2
Лейбл: Vertigo
Продолжительность: 00:53:40

01. The More Things Change (04:22)
02. Love's Got Me Doin' Time (05:19)
03. Shelter Me (04:47)
04. Heartbreak Station (04:28)
05. Sick For The Cure (03:59)
06. One For Rock And Roll (04:29)
07. Dead Man's Road (06:38)
08. Make Your Own Way (04:15)
09. Electric Love (05:23)
10. Love Gone Bad (04:20)
11. Winds Of Change (05:34)

лог создания рипа

Exact Audio Copy V1.0 beta 3 from 29. August 2011
Отчёт EAC об извлечении, выполненном 29. сентября 2012, 13:40
Cinderella / Heartbreak Station (Vertigo, 848 018-2, France)
Дисковод: ASUS    DRW-1814BL   Adapter: 0  ID: 0
Режим чтения                 : Достоверность
Использование точного потока : Да
Отключение кэша аудио        : Да
Использование указателей C2  : Нет
Коррекция смещения при чтении                     : 6
Способность читать области Lead-in и Lead-out     : Нет
Заполнение пропущенных сэмплов тишиной            : Да
Удаление блоков с тишиной в начале и конце        : Нет
При вычислениях CRC использовались нулевые сэмплы : Да
Интерфейс                                         : Встроенный Win32-интерфейс для Win NT/2000
Выходной формат : Внутренние WAV-операции
Формат сэмплов  : 44.100 Гц; 16 бит; стерео
TOC извлечённого CD
     Трек |   Старт  | Длительность | Начальный сектор | Конечный сектор
    ---------------------------------------------------------------------
       1  |  0:00.33 |    4:22.25   |          33      |      19707
       2  |  4:22.58 |    5:19.50   |       19708      |      43682
       3  |  9:42.33 |    4:47.62   |       43683      |      65269
       4  | 14:30.20 |    4:28.63   |       65270      |      85432
       5  | 18:59.08 |    3:59.60   |       85433      |     103417
       6  | 22:58.68 |    4:29.30   |      103418      |     123622
       7  | 27:28.23 |    6:38.00   |      123623      |     153472
       8  | 34:06.23 |    4:15.47   |      153473      |     172644
       9  | 38:21.70 |    5:23.50   |      172645      |     196919
      10  | 43:45.45 |    4:20.40   |      196920      |     216459
      11  | 48:06.10 |    5:34.48   |      216460      |     241557
Характеристики диапазона извлечения и сообщения об ошибках
Выбранный диапазон
     Имя файла G:\ley-barmaley\lossless-galaxy.ru\Cinderella - Heartbreak Station (Vertigo, 848 018-2, France).wav
     Пиковый уровень 100.0 %
     Скорость извлечения 6.6 X
     Качество диапазона 99.9 %
     CRC теста 05B4D253
     CRC копии 05B4D253
     Копирование... OK
Ошибок не произошло
AccurateRip: сводка
Трек  1  : извлечено точно (доверие 5)  [EA92A1D2]  (AR v2)
Трек  2  : извлечено точно (доверие 5)  [E1FEA1BB]  (AR v2)
Трек  3  : извлечено точно (доверие 6)  [094068B6]  (AR v2)
Трек  4  : извлечено точно (доверие 6)  [720D6EE8]  (AR v2)
Трек  5  : извлечено точно (доверие 6)  [1C301A93]  (AR v2)
Трек  6  : извлечено точно (доверие 6)  [CDE6F54E]  (AR v2)
Трек  7  : извлечено точно (доверие 6)  [D57963F5]  (AR v2)
Трек  8  : извлечено точно (доверие 5)  [28C62B18]  (AR v2)
Трек  9  : извлечено точно (доверие 6)  [41EBCDC8]  (AR v2)
Трек 10  : извлечено точно (доверие 6)  [CE24A74C]  (AR v2)
Трек 11  : извлечено точно (доверие 6)  [52ADF493]  (AR v2)
Все треки извлечены точно
Конец отчёта
---- CUETools DB Plugin V2.1.3
[CTDB TOCID: 351vDOkg8EAn3V25Sukk8VgoTQw-] database access error: Время ожидания операции истекло

содержание индексной карты *cue

REM GENRE "Hard & Blues"
REM DATE 1990
REM DISCID 900C940B
REM COMMENT "ExactAudioCopy v1.0b3"
PERFORMER "Cinderella"
TITLE "Heartbreak Station (Vertigo, 848 018-2, France)"
FILE "Cinderella - Heartbreak Station (Vertigo, 848 018-2, France).wv" WAVE
  TRACK 01 AUDIO
    TITLE "The More Things Change"
    PERFORMER "Cinderella"
    INDEX 00 00:00:00
    INDEX 01 00:00:33
  TRACK 02 AUDIO
    TITLE "Love's Got Me Doin' Time"
    PERFORMER "Cinderella"
    INDEX 01 04:22:58
  TRACK 03 AUDIO
    TITLE "Shelter Me"
    PERFORMER "Cinderella"
    INDEX 01 09:42:33
  TRACK 04 AUDIO
    TITLE "Heartbreak Station"
    PERFORMER "Cinderella"
    INDEX 01 14:30:20
  TRACK 05 AUDIO
    TITLE "Sick For The Cure"
    PERFORMER "Cinderella"
    INDEX 01 18:59:08
  TRACK 06 AUDIO
    TITLE "One For Rock And Roll"
    PERFORMER "Cinderella"
    INDEX 01 22:58:68
  TRACK 07 AUDIO
    TITLE "Dead Man's Road"
    PERFORMER "Cinderella"
    INDEX 00 27:27:23
    INDEX 01 27:28:23
  TRACK 08 AUDIO
    TITLE "Make Your Own Way"
    PERFORMER "Cinderella"
    INDEX 00 34:05:23
    INDEX 01 34:06:23
  TRACK 09 AUDIO
    TITLE "Electric Love"
    PERFORMER "Cinderella"
    INDEX 01 38:21:70
  TRACK 10 AUDIO
    TITLE "Love Gone Bad"
    PERFORMER "Cinderella"
    INDEX 01 43:45:45
  TRACK 11 AUDIO
    TITLE "Winds Of Change"
    PERFORMER "Cinderella"
    INDEX 01 48:06:10

Cinderella - Still Climbing 1994

Страна: USA
Год выпуска альбома: 1994
Страна изготовитель диска: Austria
Номер по каталогу: 522 947-2
Лейбл: Mercury
Продолжительность: 00:53:29

01. Bad Attitude Shuffle (05:32)
02. All Comes Down (05:02)
03. Talk Is Cheap (04:01)
04. Hard To Find The Words (05:45)
05. Blood From A Stone (04:51)
06. Still Climbing (05:22)
07. Freewheelin (03:07)
08. Through The Rain (05:06)
09. Easy Come Easy Go (04:34)
10. The Road's Still Long (06:08)
11. Hot & Bothered (03:56)

лог создания рипа

Exact Audio Copy V1.0 beta 3 from 29. August 2011
Отчёт EAC об извлечении, выполненном 29. сентября 2012, 15:05
Cinderella / Still Climbing (Mercury, 522 947-2, Austria)
Дисковод: ASUS    DRW-1814BL   Adapter: 0  ID: 0
Режим чтения                 : Достоверность
Использование точного потока : Да
Отключение кэша аудио        : Да
Использование указателей C2  : Нет
Коррекция смещения при чтении                     : 6
Способность читать области Lead-in и Lead-out     : Нет
Заполнение пропущенных сэмплов тишиной            : Да
Удаление блоков с тишиной в начале и конце        : Нет
При вычислениях CRC использовались нулевые сэмплы : Да
Интерфейс                                         : Встроенный Win32-интерфейс для Win NT/2000
Выходной формат : Внутренние WAV-операции
Формат сэмплов  : 44.100 Гц; 16 бит; стерео
TOC извлечённого CD
     Трек |   Старт  | Длительность | Начальный сектор | Конечный сектор
    ---------------------------------------------------------------------
       1  |  0:00.00 |    5:32.35   |           0      |      24934
       2  |  5:32.35 |    5:02.37   |       24935      |      47621
       3  | 10:34.72 |    4:01.33   |       47622      |      65729
       4  | 14:36.30 |    5:45.40   |       65730      |      91644
       5  | 20:21.70 |    4:51.52   |       91645      |     113521
       6  | 25:13.47 |    5:22.00   |      113522      |     137671
       7  | 30:35.47 |    3:07.70   |      137672      |     151766
       8  | 33:43.42 |    5:06.43   |      151767      |     174759
       9  | 38:50.10 |    4:34.52   |      174760      |     195361
      10  | 43:24.62 |    6:08.05   |      195362      |     222966
      11  | 49:32.67 |    3:56.70   |      222967      |     240736
Характеристики диапазона извлечения и сообщения об ошибках
Выбранный диапазон
     Имя файла G:\ley-barmaley\lossless-galaxy.ru\Cinderella - Still Climbing (Mercury, 522 947-2, Austria).wav
     Пиковый уровень 100.0 %
     Скорость извлечения 4.2 X
     Качество диапазона 100.0 %
     CRC теста BB3CB5A0
     CRC копии BB3CB5A0
     Копирование... OK
Ошибок не произошло
AccurateRip: сводка
Трек  1  : извлечено точно (доверие 3)  [EAEBAD7F]  (AR v2)
Трек  2  : извлечено точно (доверие 3)  [A1D82F04]  (AR v2)
Трек  3  : извлечено точно (доверие 3)  [6FA87321]  (AR v2)
Трек  4  : извлечено точно (доверие 3)  [EC84F907]  (AR v2)
Трек  5  : извлечено точно (доверие 3)  [927B047D]  (AR v2)
Трек  6  : извлечено точно (доверие 3)  [3153A693]  (AR v2)
Трек  7  : извлечено точно (доверие 3)  [C5CC6E3B]  (AR v2)
Трек  8  : извлечено точно (доверие 3)  [D4AA181C]  (AR v2)
Трек  9  : извлечено точно (доверие 3)  [069171A7]  (AR v2)
Трек 10  : извлечено точно (доверие 3)  [6C344887]  (AR v2)
Трек 11  : извлечено точно (доверие 3)  [1FAA42B5]  (AR v2)
Все треки извлечены точно
Конец отчёта
---- CUETools DB Plugin V2.1.3
[CTDB TOCID: v6aJGFWrVTuCTk9LkKfDoekWER4-] database access error: Время ожидания операции истекло

содержание индексной карты *cue

REM GENRE "Hard Rock"
REM DATE 1994
REM DISCID 900C890B
REM COMMENT "ExactAudioCopy v1.0b3"
PERFORMER "Cinderella"
TITLE "Still Climbing (Mercury, 522 947-2, Austria)"
FILE "Cinderella - Still Climbing (Mercury, 522 947-2, Austria).wv" WAVE
  TRACK 01 AUDIO
    TITLE "Bad Attitude Shuffle"
    PERFORMER "Cinderella"
    INDEX 01 00:00:00
  TRACK 02 AUDIO
    TITLE "All Comes Down"
    PERFORMER "Cinderella"
    INDEX 00 05:31:52
    INDEX 01 05:32:35
  TRACK 03 AUDIO
    TITLE "Talk Is Cheap"
    PERFORMER "Cinderella"
    INDEX 01 10:34:72
  TRACK 04 AUDIO
    TITLE "Hard To Find The Words"
    PERFORMER "Cinderella"
    INDEX 01 14:36:30
  TRACK 05 AUDIO
    TITLE "Blood From A Stone"
    PERFORMER "Cinderella"
    INDEX 00 20:21:25
    INDEX 01 20:21:70
  TRACK 06 AUDIO
    TITLE "Still Climbing"
    PERFORMER "Cinderella"
    INDEX 01 25:13:47
  TRACK 07 AUDIO
    TITLE "Freewheelin"
    PERFORMER "Cinderella"
    INDEX 01 30:35:47
  TRACK 08 AUDIO
    TITLE "Through The Rain"
    PERFORMER "Cinderella"
    INDEX 00 33:42:17
    INDEX 01 33:43:42
  TRACK 09 AUDIO
    TITLE "Easy Come Easy Go"
    PERFORMER "Cinderella"
    INDEX 01 38:50:10
  TRACK 10 AUDIO
    TITLE "The Road's Still Long"
    PERFORMER "Cinderella"
    INDEX 00 43:23:30
    INDEX 01 43:24:62
  TRACK 11 AUDIO
    TITLE "Hot & Bothered"
    PERFORMER "Cinderella"
    INDEX 00 49:29:17
    INDEX 01 49:32:67
- -
[Профиль] [ЛС]
Показать сообщения:    

Текущее время: Сегодня 20:05

Часовой пояс: GMT



Вы не можете начинать темы
Вы не можете отвечать на сообщения
Вы не можете редактировать свои сообщения
Вы не можете удалять свои сообщения
Вы не можете голосовать в опросах
Вы не можете прикреплять файлы к сообщениям
Вы не можете скачивать файлы