(Hard Rock) Cinderella - ocked, Wired & Bluesed - The Greatest Hits - 2005 [FLAC, image+.cue, lossless]

 
Автор Сообщение

sergej644 ®

Пол:

Стаж: 4 года 11 месяцев

Сообщений: 6045

Откуда: Soviet Union



Награды: Нет

Торрент-статистика

Создавать темы 06-Июл-2015 07:38

[Цитировать]

-Cinderella / ocked, Wired & Bluesed - The Greatest Hits-- Год издания: 2005
Страна: USA
Жанр: Hard Rock
Продолжительность: 01:17:41-Лейбл издания: Mercury/Universal
Страна-выпуска диска: USA
Номер по каталогу: B0003573-02
Формат: FLAC
Битрейт аудио: lossless
Тип рипа: image+.cue
Наличие сканов в содержимом раздачи: да
-

Трэклист

01.Night Songs (04:13)
02.Shake Me (03:45)
03.Nobody's Fool (04:48)
04.Somebody Save Me (03:17)
05.Bad Seamstress Blues/Fallin' Apart At The Seams (05:22)
06.Gypsy Road (04:02)
07.Don't Know What You Got (Till It's Gone) (05:55)
08.The Last Mile (03:52)
09.Long Cold Winter (05:22)
10.If You Don't Like It (04:15)
11.Coming Home (04:55)
12.The More Things Change (04:22)
13.Shelter Me (04:48)
14.Heartbreak Station (04:29)
15.Winds Of Change (05:35)
16.Blood From A Stone (04:51)
17.Hot And Bothered (03:57)
-

Лог создания рипа

Exact Audio Copy V1.0 beta 3 from 29. August 2011
EAC extraction logfile from 23. February 2015, 23:44
Cinderella / Rocked, Wired & Bluesed: The Greatest Hits
Used drive  : HL-DT-STDVDRAM GH22NS40   Adapter: 4  ID: 0
Read mode               : Secure
Utilize accurate stream : Yes
Defeat audio cache      : Yes
Make use of C2 pointers : No
Read offset correction                      : 667
Overread into Lead-In and Lead-Out          : No
Fill up missing offset samples with silence : Yes
Delete leading and trailing silent blocks   : No
Null samples used in CRC calculations       : Yes
Used interface                              : Native Win32 interface for Win NT & 2000
Used output format              : User Defined Encoder
Selected bitrate                : 1024 kBit/s
Quality                         : High
Add ID3 tag                     : No
Command line compressor         : C:\Program Files\FLAC\flac.exe
Additional command line options : -V -8 -T "Date=%year%" -T "Genre=%genre%" %source%
TOC of the extracted CD
     Track |   Start  |  Length  | Start sector | End sector
    ---------------------------------------------------------
        1  |  0:00.00 |  4:12.44 |         0    |    18943
        2  |  4:12.44 |  3:44.49 |     18944    |    35792
        3  |  7:57.18 |  4:47.64 |     35793    |    57381
        4  | 12:45.07 |  3:16.23 |     57382    |    72104
        5  | 16:01.30 |  5:21.74 |     72105    |    96253
        6  | 21:23.29 |  4:01.05 |     96254    |   114333
        7  | 25:24.34 |  5:54.66 |    114334    |   140949
        8  | 31:19.25 |  3:51.02 |    140950    |   158276
        9  | 35:10.27 |  5:21.41 |    158277    |   182392
       10  | 40:31.68 |  4:14.06 |    182393    |   201448
       11  | 44:45.74 |  4:54.17 |    201449    |   223515
       12  | 49:40.16 |  4:21.64 |    223516    |   243154
       13  | 54:02.05 |  4:47.58 |    243155    |   264737
       14  | 58:49.63 |  4:28.74 |    264738    |   284911
       15  | 63:18.62 |  5:34.20 |    284912    |   309981
       16  | 68:53.07 |  4:50.03 |    309982    |   331734
       17  | 73:43.10 |  3:56.71 |    331735    |   349505
Range status and errors
Selected range
     Filename I:\Rips\Cinderella - Rocked, Wired & Bluesed - The Greatest Hits.wav
     Peak level 99.8 %
     Extraction speed 2.1 X
     Range quality 100.0 %
     Test CRC 292B4572
     Copy CRC 292B4572
     Copy OK
No errors occurred
AccurateRip summary
Track  1  accurately ripped (confidence 38)  [233F7213]  (AR v2)
Track  2  accurately ripped (confidence 38)  [105C5E17]  (AR v2)
Track  3  accurately ripped (confidence 38)  [029238EE]  (AR v2)
Track  4  accurately ripped (confidence 38)  [369A0859]  (AR v2)
Track  5  accurately ripped (confidence 38)  [02DF5A2D]  (AR v2)
Track  6  accurately ripped (confidence 38)  [D71D5389]  (AR v2)
Track  7  accurately ripped (confidence 38)  [5AF577D7]  (AR v2)
Track  8  accurately ripped (confidence 36)  [0F8ACCFD]  (AR v2)
Track  9  accurately ripped (confidence 38)  [05C5EAA5]  (AR v2)
Track 10  accurately ripped (confidence 38)  [9A7BB15E]  (AR v2)
Track 11  accurately ripped (confidence 38)  [7CFD2A27]  (AR v2)
Track 12  accurately ripped (confidence 38)  [633A43D5]  (AR v2)
Track 13  accurately ripped (confidence 39)  [ABDA8653]  (AR v2)
Track 14  accurately ripped (confidence 38)  [4B21C655]  (AR v2)
Track 15  accurately ripped (confidence 38)  [A819BC76]  (AR v2)
Track 16  accurately ripped (confidence 38)  [B033B0AE]  (AR v2)
Track 17  accurately ripped (confidence 35)  [63F27508]  (AR v2)
All tracks accurately ripped
End of status report

Индексная карта (non-compilant .cue)

REM GENRE "Hard Rock"
REM DATE 2005
REM DISCID F5123411
REM COMMENT "ExactAudioCopy v1.0b3"
PERFORMER "Cinderella"
TITLE "Rocked, Wired & Bluesed: The Greatest Hits"
FILE "Cinderella - Rocked, Wired & Bluesed - The Greatest Hits.flac" WAVE
  TRACK 01 AUDIO
    TITLE "Night Songs"
    PERFORMER "Cinderella"
    INDEX 01 00:00:00
  TRACK 02 AUDIO
    TITLE "Shake Me"
    PERFORMER "Cinderella"
    INDEX 00 04:11:33
    INDEX 01 04:12:44
  TRACK 03 AUDIO
    TITLE "Nobody's Fool"
    PERFORMER "Cinderella"
    INDEX 01 07:57:18
  TRACK 04 AUDIO
    TITLE "Somebody Save Me"
    PERFORMER "Cinderella"
    INDEX 01 12:45:07
  TRACK 05 AUDIO
    TITLE "Bad Seamstress Blues/Fallin' Apart At The Seams"
    PERFORMER "Cinderella"
    INDEX 00 16:00:11
    INDEX 01 16:01:30
  TRACK 06 AUDIO
    TITLE "Gypsy Road"
    PERFORMER "Cinderella"
    INDEX 01 21:23:29
  TRACK 07 AUDIO
    TITLE "Don't Know What You Got (Till It's Gone)"
    PERFORMER "Cinderella"
    INDEX 01 25:24:34
  TRACK 08 AUDIO
    TITLE "The Last Mile"
    PERFORMER "Cinderella"
    INDEX 01 31:19:25
  TRACK 09 AUDIO
    TITLE "Long Cold Winter"
    PERFORMER "Cinderella"
    INDEX 01 35:10:27
  TRACK 10 AUDIO
    TITLE "If You Don't Like It"
    PERFORMER "Cinderella"
    INDEX 01 40:31:68
  TRACK 11 AUDIO
    TITLE "Coming Home"
    PERFORMER "Cinderella"
    INDEX 01 44:45:74
  TRACK 12 AUDIO
    TITLE "The More Things Change"
    PERFORMER "Cinderella"
    INDEX 01 49:40:16
  TRACK 13 AUDIO
    TITLE "Shelter Me"
    PERFORMER "Cinderella"
    INDEX 01 54:02:05
  TRACK 14 AUDIO
    TITLE "Heartbreak Station"
    PERFORMER "Cinderella"
    INDEX 01 58:49:63
  TRACK 15 AUDIO
    TITLE "Winds Of Change"
    PERFORMER "Cinderella"
    INDEX 01 63:18:62
  TRACK 16 AUDIO
    TITLE "Blood From A Stone"
    PERFORMER "Cinderella"
    INDEX 01 68:53:07
  TRACK 17 AUDIO
    TITLE "Hot And Bothered"
    PERFORMER "Cinderella"
    INDEX 01 73:43:10
--Не забываем говорить
[Профиль] [ЛС]
Показать сообщения:    

Текущее время: Сегодня 06:07

Часовой пояс: GMT



Вы не можете начинать темы
Вы не можете отвечать на сообщения
Вы не можете редактировать свои сообщения
Вы не можете удалять свои сообщения
Вы не можете голосовать в опросах
Вы не можете прикреплять файлы к сообщениям
Вы не можете скачивать файлы