(Pop-Rock & Soft Rock) Chris Norman - Crossover - 2015 [FLAC, image+.cue, lossless]

 
Автор Сообщение

sergej644 ®

Пол:

Стаж: 4 года 11 месяцев

Сообщений: 6043

Откуда: Soviet Union



Награды: Нет

Торрент-статистика

Создавать темы 22-Дек-2015 16:10

[Цитировать]

-Chris Norman / Crossover-- Год издания: 2015
Страна: UK
Жанр: Pop-Rock & Soft Rock
Продолжительность: 00:50:20-Лейбл издания: Solo Sound Records
Страна-выпуска диска: Germany
Номер по каталогу: CD115892
Формат: FLAC
Битрейт аудио: lossless
Тип рипа: image+.cue
Наличие сканов в содержимом раздачи: да
-

Трэклист

01.Waiting (04:34)
02.Cat.s Eyes (03:46)
03.Hard To Find (03:59)
04.Fly Away (04:46)
05.Highest Mountain (03:48)
06.Before The Morning Knows (03:50)
07.The Girl I Love (03:52)
08.Beautiful Rain (03:58)
09.Carry On (03:16)
10.Take This Lonely Heart (03:18)
11.Alien Like You (03:14)
12.Love.s On Fire (04:00)
13.40 Years On (Remix) (04:05)
-

Лог создания рипа

Exact Audio Copy V1.0 beta 3 from 29. August 2011
EAC extraction logfile from 2. October 2015, 21:13
Chris Norman / Crossover
Used drive  : MATSHITABD-CMB UJ242AS   Adapter: 0  ID: 1
Read mode               : Secure
Utilize accurate stream : Yes
Defeat audio cache      : Yes
Make use of C2 pointers : No
Read offset correction                      : 103
Overread into Lead-In and Lead-Out          : No
Fill up missing offset samples with silence : Yes
Delete leading and trailing silent blocks   : No
Null samples used in CRC calculations       : Yes
Used interface                              : Installed external ASPI interface
Used output format              : User Defined Encoder
Selected bitrate                : 1024 kBit/s
Quality                         : High
Add ID3 tag                     : Yes
Command line compressor         : C:\Program Files (x86)\Exact Audio Copy\Flac\flac.exe
Additional command line options : -V -8 -T "Date=%year%" -T "Genre=%genre%" %source%
TOC of the extracted CD
     Track |   Start  |  Length  | Start sector | End sector
    ---------------------------------------------------------
        1  |  0:00.00 |  4:33.24 |         0    |    20498
        2  |  4:33.24 |  3:45.48 |     20499    |    37421
        3  |  8:18.72 |  3:58.52 |     37422    |    55323
        4  | 12:17.49 |  4:45.68 |     55324    |    76766
        5  | 17:03.42 |  3:47.70 |     76767    |    93861
        6  | 20:51.37 |  3:49.64 |     93862    |   111100
        7  | 24:41.26 |  3:51.01 |    111101    |   128426
        8  | 28:32.27 |  3:57.41 |    128427    |   146242
        9  | 32:29.68 |  3:15.38 |    146243    |   160905
       10  | 35:45.31 |  3:17.03 |    160906    |   175683
       11  | 39:02.34 |  3:13.06 |    175684    |   190164
       12  | 42:15.40 |  3:59.31 |    190165    |   208120
       13  | 46:14.71 |  4:04.47 |    208121    |   226467
Range status and errors
Selected range
     Filename C:\EACrip\Chris Norman - Crossover.wav
     Peak level 100.0 %
     Extraction speed 4.0 X
     Range quality 99.9 %
     Test CRC 96AC24C1
     Copy CRC 96AC24C1
     Copy OK
No errors occurred
AccurateRip summary
Track  1  not present in database
Track  2  not present in database
Track  3  not present in database
Track  4  not present in database
Track  5  not present in database
Track  6  not present in database
Track  7  not present in database
Track  8  not present in database
Track  9  not present in database
Track 10  not present in database
Track 11  not present in database
Track 12  not present in database
Track 13  not present in database
None of the tracks are present in the AccurateRip database
End of status report

Индексная карта (non-compilant .cue)

REM GENRE Rock
REM DATE 2015
REM DISCID AA0BCB0D
REM COMMENT "ExactAudioCopy v1.0b3"
PERFORMER "Chris Norman"
TITLE "Crossover"
FILE "Chris Norman - Crossover.flac" WAVE
  TRACK 01 AUDIO
    TITLE "Waiting"
    PERFORMER "Chris Norman"
    INDEX 01 00:00:00
  TRACK 02 AUDIO
    TITLE "Cat.s Eyes"
    PERFORMER "Chris Norman"
    INDEX 01 04:33:24
  TRACK 03 AUDIO
    TITLE "Hard To Find"
    PERFORMER "Chris Norman"
    INDEX 01 08:18:72
  TRACK 04 AUDIO
    TITLE "Fly Away"
    PERFORMER "Chris Norman"
    INDEX 01 12:17:49
  TRACK 05 AUDIO
    TITLE "Highest Mountain"
    PERFORMER "Chris Norman"
    INDEX 01 17:03:42
  TRACK 06 AUDIO
    TITLE "Before The Morning Knows"
    PERFORMER "Chris Norman"
    INDEX 01 20:51:37
  TRACK 07 AUDIO
    TITLE "The Girl I Love"
    PERFORMER "Chris Norman"
    INDEX 01 24:41:26
  TRACK 08 AUDIO
    TITLE "Beautiful Rain"
    PERFORMER "Chris Norman"
    INDEX 01 28:32:27
  TRACK 09 AUDIO
    TITLE "Carry On"
    PERFORMER "Chris Norman"
    INDEX 01 32:29:68
  TRACK 10 AUDIO
    TITLE "Take This Lonely Heart"
    PERFORMER "Chris Norman"
    INDEX 01 35:45:31
  TRACK 11 AUDIO
    TITLE "Alien Like You"
    PERFORMER "Chris Norman"
    INDEX 01 39:02:34
  TRACK 12 AUDIO
    TITLE "Love.s On Fire"
    PERFORMER "Chris Norman"
    INDEX 01 42:15:40
  TRACK 13 AUDIO
    TITLE "40 Years On (Remix)"
    PERFORMER "Chris Norman"
    INDEX 01 46:14:71

Скриншот спектра частот

--Не забываем говорить
[Профиль] [ЛС]
Кто просматривает тему:

Форум Тема Автор Размер
Rock (Pop-rock & Soft Rock) Smokie - Remastered Studio Discography (1975-1982), FLAC (image+.cue) lossless sergej644 3.71 GB
Показать сообщения:    

Текущее время: Сегодня 18:38

Часовой пояс: GMT



Вы не можете начинать темы
Вы не можете отвечать на сообщения
Вы не можете редактировать свои сообщения
Вы не можете удалять свои сообщения
Вы не можете голосовать в опросах
Вы не можете прикреплять файлы к сообщениям
Вы не можете скачивать файлы