Chilly - Stars (2001) [FLAC|Lossless]<Disco>

 
Автор Сообщение

sergej644 ®

Пол:

Стаж: 4 года 11 месяцев

Сообщений: 6046

Откуда: Soviet Union



Награды: Нет

Торрент-статистика

Создавать темы 24-Дек-2014 23:12

[Цитировать]

-Chilly - Stars (2001)- Год: 2001
Жанр: Disco
Лейбл: QG Productions
Каталог #: QGA 002
Продолжительность: 01:06:42-Кодек: FLAC
Тип рипа: image + .cue
Битрейт: Lossless-Треклист:
01. Sunshine Of Your Love (6:32)
02. Get Up And Move (4:02)
03. Layla (2:38)
04. Springtime (3:40)
05. Friday In My Mind (3:14)
06. Come Let's Go (3:25)
07. The Race (4:21)
08. We Are The Popkings (4:08)
09. Dimension 5 (3:17)
10. Secret Lies (3:11)
11. Ten Million Dollar Baby (2:40)
12. Brain Storming (3:45)
13. Doll Queen (2:32)
14. Stars (4:25)
15. Simply A Love Song (3:10)
16. Play Me A Classic Symphony (3:00)
17. Runaround (2:24)
18. Energy (1:59)
19. Hide (4:20)-

Отчёт ЕАС&#58;

Exact Audio Copy V1.0 beta 2 from 29. April 2011
Отчёт EAC об извлечении, выполненном 25. декабря 2013, 20:04
Chilly / Stars
Дисковод: PLEXTOR BDDVDRPX-B330SA   Adapter: 0  ID: 1
Режим чтения                 : Достоверность
Использование точного потока : Да
Отключение кэша аудио        : Да
Использование указателей C2  : Нет
Коррекция смещения при чтении                     : 702
Способность читать области Lead-in и Lead-out     : Нет
Заполнение пропущенных сэмплов тишиной            : Да
Удаление блоков с тишиной в начале и конце        : Нет
При вычислениях CRC использовались нулевые сэмплы : Да
Интерфейс                                         : Встроенный Win32-интерфейс для Win NT/2000
Выходной формат          : Пользовательский кодировщик
Выбранный битрейт        : 128 kBit/s
Качество                 : Высокий
Добавление ID3-тега      : Нет
Утилита сжатия           : C:\Program Files\Exact Audio Copy\FLAC\FLAC.EXE
Дополнительные параметры : -6 -V -T "ARTIST=%artist%" -T "TITLE=%title%" -T "ALBUM=%albumtitle%" -T "DATE=%year%" -T "TRACKNUMBER=%tracknr%" -T "GENRE=%genre%" -T "COMMENT=%comment%" -T "BAND=%albuminterpret%" -T "COMPOSER=%composer%" %haslyrics%--tag-from-
TOC извлечённого CD
     Трек |   Старт  | Длительность | Начальный сектор | Конечный сектор
    ---------------------------------------------------------------------
       1  |  0:00.01 |    6:31.73   |           1      |      29398
       2  |  6:31.74 |    4:02.20   |       29399      |      47568
       3  | 10:34.19 |    2:38.08   |       47569      |      59426
       4  | 13:12.27 |    3:39.40   |       59427      |      75891
       5  | 16:51.67 |    3:13.40   |       75892      |      90406
       6  | 20:05.32 |    3:24.57   |       90407      |     105763
       7  | 23:30.14 |    4:21.36   |      105764      |     125374
       8  | 27:51.50 |    4:07.52   |      125375      |     143951
       9  | 31:59.27 |    3:16.59   |      143952      |     158710
      10  | 35:16.11 |    3:10.66   |      158711      |     173026
      11  | 38:27.02 |    2:40.10   |      173027      |     185036
      12  | 41:07.12 |    3:44.56   |      185037      |     201892
      13  | 44:51.68 |    2:31.54   |      201893      |     213271
      14  | 47:23.47 |    4:24.53   |      213272      |     233124
      15  | 51:48.25 |    3:09.52   |      233125      |     247351
      16  | 54:58.02 |    2:59.58   |      247352      |     260834
      17  | 57:57.60 |    2:24.36   |      260835      |     271670
      18  | 60:22.21 |    1:59.27   |      271671      |     280622
      19  | 62:21.48 |    4:20.19   |      280623      |     300141
Характеристики диапазона извлечения и сообщения об ошибках
Выбранный диапазон
     Имя файла D:\FLAC\Chilly - Stars.wav
     Пиковый уровень 95.2 %
     Скорость извлечения 1.3 X
     Качество диапазона 100.0 %
     CRC теста E2CEEDA8
     CRC копии E2CEEDA8
     Копирование... OK
Ошибок не произошло
AccurateRip: сводка
Трек  1  : извлечено точно (доверие 1)  [718FC7F4]  (AR v2)
Трек  2  : извлечено точно (доверие 1)  [EFED1BA8]  (AR v2)
Трек  3  : извлечено точно (доверие 1)  [052EFAAA]  (AR v2)
Трек  4  : извлечено точно (доверие 1)  [DB7CBA90]  (AR v2)
Трек  5  : извлечено точно (доверие 1)  [733CE485]  (AR v2)
Трек  6  : извлечено точно (доверие 1)  [A23625FC]  (AR v2)
Трек  7  : извлечено точно (доверие 1)  [20BC2006]  (AR v2)
Трек  8  : извлечено точно (доверие 1)  [C44F08CF]  (AR v2)
Трек  9  : извлечено точно (доверие 1)  [C1667123]  (AR v2)
Трек 10  : извлечено точно (доверие 1)  [9116B063]  (AR v2)
Трек 11  : извлечено точно (доверие 1)  [AB6A2A52]  (AR v2)
Трек 12  : извлечено точно (доверие 1)  [E3485DF9]  (AR v2)
Трек 13  : извлечено точно (доверие 1)  [03DFC857]  (AR v2)
Трек 14  : извлечено точно (доверие 1)  [713517B2]  (AR v2)
Трек 15  : извлечено точно (доверие 1)  [501F5DB7]  (AR v2)
Трек 16  : извлечено точно (доверие 1)  [0D6C483F]  (AR v2)
Трек 17  : извлечено точно (доверие 1)  [7EAD091B]  (AR v2)
Трек 18  : извлечено точно (доверие 1)  [0340AB50]  (AR v2)
Трек 19  : извлечено точно (доверие 1)  [F80D90F8]  (AR v2)
Все треки извлечены точно
Конец отчёта
==== Контрольная сумма отчёта 6567EB8C4F9B8CBBD4ACC41ADA7920705D2F43CA55375A0679102E4B5D5914E7 ====

Отчёт auCDtect Task manager&#58;

-----------------------
DON'T MODIFY THIS FILE
-----------------------
PERFORMER: auCDtect Task Manager, ver. 1.6.0 RC1 build 1.6.0.1
Copyright (c) 2008-2010 y-soft. All rights reserved
http://y-soft.org
ANALYZER: auCDtect: CD records authenticity detector, version 0.8.2
Copyright (c) 2004 Oleg Berngardt. All rights reserved.
Copyright (c) 2004 Alexander Djourik. All rights reserved.
FILE: Chilly - Stars.flac
  Size: 467255962 Hash: 6FBCA968817C32107640A4BCB8FACF64 Accuracy: -m0
  Conclusion: CDDA 100%
  Signature: CEC9EB321EDC9DC6AC22C4DEDAA0EC0C2D746C72

Содержание индексной карты (.CUE&#41;

REM GENRE Disco
REM DATE 2001
REM DISCID 020FA113
REM COMMENT "ExactAudioCopy v1.0b2"
PERFORMER Chilly
TITLE Stars
FILE "Chilly - Stars.flac" WAVE
  TRACK 01 AUDIO
    TITLE "Sunshine Of Your Love"
    PERFORMER Chilly
    INDEX 00 00:00:00
    INDEX 01 00:00:01
  TRACK 02 AUDIO
    TITLE "Get Up And Move"
    PERFORMER Chilly
    INDEX 01 06:31:74
  TRACK 03 AUDIO
    TITLE Layla
    PERFORMER Chilly
    INDEX 01 10:34:19
  TRACK 04 AUDIO
    TITLE Springtime
    PERFORMER Chilly
    INDEX 01 13:12:27
  TRACK 05 AUDIO
    TITLE "Friday In My Mind"
    PERFORMER Chilly
    INDEX 01 16:51:67
  TRACK 06 AUDIO
    TITLE "Come Let's Go"
    PERFORMER Chilly
    INDEX 01 20:05:32
  TRACK 07 AUDIO
    TITLE "The Race"
    PERFORMER Chilly
    INDEX 01 23:30:14
  TRACK 08 AUDIO
    TITLE "We Are The Popkings"
    PERFORMER Chilly
    INDEX 01 27:51:50
  TRACK 09 AUDIO
    TITLE "Dimension 5"
    PERFORMER Chilly
    INDEX 01 31:59:27
  TRACK 10 AUDIO
    TITLE "Secret Lies"
    PERFORMER Chilly
    INDEX 01 35:16:11
  TRACK 11 AUDIO
    TITLE "Ten Million Dollar Baby"
    PERFORMER Chilly
    INDEX 01 38:27:02
  TRACK 12 AUDIO
    TITLE "Brain Storming"
    PERFORMER Chilly
    INDEX 01 41:07:12
  TRACK 13 AUDIO
    TITLE "Doll Queen"
    PERFORMER Chilly
    INDEX 01 44:51:68
  TRACK 14 AUDIO
    TITLE Stars
    PERFORMER Chilly
    INDEX 01 47:23:47
  TRACK 15 AUDIO
    TITLE "Simply A Love Song"
    PERFORMER Chilly
    INDEX 01 51:48:25
  TRACK 16 AUDIO
    TITLE "Play Me A Classic Symphony"
    PERFORMER Chilly
    INDEX 01 54:58:02
  TRACK 17 AUDIO
    TITLE Runaround
    PERFORMER Chilly
    INDEX 01 57:57:60
  TRACK 18 AUDIO
    TITLE Energy
    PERFORMER Chilly
    INDEX 01 60:22:21
  TRACK 19 AUDIO
    TITLE Hide
    PERFORMER Chilly
    INDEX 01 62:21:48

Сверка с АккуратРип

[CUETools log; Date: 29.01.2014 21:17:43; Version: 2.1.4]
Pregap length 00:00:01.
[CTDB TOCID: IRAlF9fSVctIGL0sOGhCjOPUp_0-] disk not present in database.
[AccurateRip ID: 0030e192-029cdd85-020fa113] found.
Track   [  CRC   |   V2   ] Status
01     [32cc725c|718fc7f4] (0+1/1) Accurately ripped
02     [f9c913a6|efed1ba8] (0+1/1) Accurately ripped
03     [b32f5bb8|052efaaa] (0+1/1) Accurately ripped
04     [abb7d583|db7cba90] (0+1/1) Accurately ripped
05     [2d0592c3|733ce485] (0+1/1) Accurately ripped
06     [4b72b7f8|a23625fc] (0+1/1) Accurately ripped
07     [ec5453af|20bc2006] (0+1/1) Accurately ripped
08     [04018dfe|c44f08cf] (0+1/1) Accurately ripped
09     [bff93ea8|c1667123] (0+1/1) Accurately ripped
10     [4c959239|9116b063] (0+1/1) Accurately ripped
11     [fb37407c|ab6a2a52] (0+1/1) Accurately ripped
12     [e3917e97|e3485df9] (0+1/1) Accurately ripped
13     [7a8762a5|03dfc857] (0+1/1) Accurately ripped
14     [1c6a720a|713517b2] (0+1/1) Accurately ripped
15     [cdbf0cbc|501f5db7] (0+1/1) Accurately ripped
16     [b23fa72d|0d6c483f] (0+1/1) Accurately ripped
17     [6dc5c478|7ead091b] (0+1/1) Accurately ripped
18     [6abf4f9a|0340ab50] (0+1/1) Accurately ripped
19     [d309e482|f80d90f8] (0+1/1) Accurately ripped
Track Peak [ CRC32  ] [W/O NULL] [  LOG   ]
--   95,2 [E2CEEDA8] [6AA78C56]   CRC32
01   93,4 [26CB7F62] [380BB734]
02   93,2 [3D2CE285] [1FE3381C]
03   93,4 [FEC44DBB] [B021C659]
04   92,0 [E8A39311] [BCBE5C32]
05   92,5 [8870747B] [EFED5601]
06   91,8 [99196F2C] [831DE452]
07   92,1 [8059A34C] [2BAA6D68]
08   95,2 [06C8B1CA] [78436697]
09   83,6 [53DBB92C] [EFD5472B]
10   89,4 [507CA27E] [39370862]
11   89,1 [8FAAA967] [B5647A40]
12   91,7 [A8CD0C65] [79A004CC]
13   93,2 [D0A3001D] [415109D9]
14   93,0 [3F1C05EA] [62DCEC57]
15   89,6 [CFC035CB] [7E59C3B4]
16   91,1 [C631C377] [ACB4C4C1]
17   92,7 [97CDD202] [4AA235B1]
18   87,5 [F1930937] [A044AC2B]
19   91,3 [158A7CEA] [5AED3743]
[Профиль] [ЛС]

Создавать темы 13-Авг-2015 10:41 (спустя 7 месяцев 19 дней)

Топик был перенесен из форума Зарубежная в форум Technopop, Eurodance, Disco
sergej644
 
Кто просматривает тему:

Показать сообщения:    

Текущее время: Сегодня 07:14

Часовой пояс: GMT



Вы не можете начинать темы
Вы не можете отвечать на сообщения
Вы не можете редактировать свои сообщения
Вы не можете удалять свои сообщения
Вы не можете голосовать в опросах
Вы не можете прикреплять файлы к сообщениям
Вы не можете скачивать файлы