(Rock,Classic Rock,Hard Rock) Cheap Trick - 10 Original Albums Classics 1977-1990 (2 Box Sets 2008, 2011) - 2011, [FLAC (image + .cue), lossless]

 
Автор Сообщение

sergej644 ®

Пол:

Стаж: 4 года 11 месяцев

Сообщений: 6035

Откуда: Soviet Union



Награды: Нет

Торрент-статистика

Создавать темы 22-Дек-2014 21:27

[Цитировать]

-Cheap Trick - 10 Original Albums Classics 1977-1990 (2 Box Sets 2008, 2011)-
Страна: USA || Жанр: Rock,Classic Rock,Hard Rock || Год выпуска: 2011 || Формат: FLAC (image + .cue) || Битрейт аудио: lossless || Продолжительность: 08:11:42
- -

Box Set 5 Original Albums Classics (1977 - 1983) 2008

-

1977 - Cheap Trick (00:57:13)

01. ELO Kiddies (03:41)
02. Daddy Should Have Stayed In High School (04:44)
03. Taxman, Mr. Thief (04:15)
04. Cry, Cry (04:22)
05. Oh, Candy (03:06)
06. Hot Love (02:30)
07. Speak Now Or Forever Hold Your Peace (04:34)
08. He's A Whore (02:42)
09. Mandocello (04:46)
10. The Ballad Of TV Violence (I'm Not The Only Boy) (05:25)
11. Lovin' Money (04:09)
12. I Want You To Want Me (02:44)
13. Lookout (03:30)
14. You're All Talk (03:31)
15. I Dig Go-Go Girls (03:06)

лог создания рипа

Exact Audio Copy V1.0 beta 3 from 29. August 2011
EAC extraction logfile from 21. April 2012, 21:14
Cheap Trick / Cheap Trick
Used drive  : HL-DT-STDVDRAM GSA-H60N   Adapter: 2  ID: 0
Read mode               : Secure
Utilize accurate stream : Yes
Defeat audio cache      : Yes
Make use of C2 pointers : No
Read offset correction                      : 667
Overread into Lead-In and Lead-Out          : No
Fill up missing offset samples with silence : Yes
Delete leading and trailing silent blocks   : No
Null samples used in CRC calculations       : Yes
Used interface                              : Native Win32 interface for Win NT & 2000
Used output format : Internal WAV Routines
Sample format      : 44.100 Hz; 16 Bit; Stereo
TOC of the extracted CD
     Track |   Start  |  Length  | Start sector | End sector
    ---------------------------------------------------------
        1  |  0:00.00 |  3:41.12 |         0    |    16586
        2  |  3:41.12 |  4:44.25 |     16587    |    37911
        3  |  8:25.37 |  4:15.38 |     37912    |    57074
        4  | 12:41.00 |  4:22.52 |     57075    |    76776
        5  | 17:03.52 |  3:06.60 |     76777    |    90786
        6  | 20:10.37 |  2:30.28 |     90787    |   102064
        7  | 22:40.65 |  4:34.72 |    102065    |   122686
        8  | 27:15.62 |  2:42.50 |    122687    |   134886
        9  | 29:58.37 |  4:46.65 |    134887    |   156401
       10  | 34:45.27 |  5:25.35 |    156402    |   180811
       11  | 40:10.62 |  4:09.53 |    180812    |   199539
       12  | 44:20.40 |  2:44.60 |    199540    |   211899
       13  | 47:05.25 |  3:30.20 |    211900    |   227669
       14  | 50:35.45 |  3:31.52 |    227670    |   243546
       15  | 54:07.22 |  3:06.05 |    243547    |   257501
Range status and errors
Selected range
     Filename C:Documents and SettingsAdminРабочий столLossless Galaxy Rip by ALLexxessCheap Trick2008 Original Album Classics (5CD Box Set Epic Records)1977 Cheap TrickCheap Trick - Cheap Trick.wav
     Peak level 100.0 %
     Extraction speed 6.1 X
     Range quality 100.0 %
     Test CRC A23C522B
     Copy CRC A23C522B
     Copy OK
No errors occurred
AccurateRip summary
Track  1  cannot be verified as accurate (confidence 14)  [28BEB4D8], AccurateRip returned [E2E089B3]  (AR v2)
Track  2  cannot be verified as accurate (confidence 14)  [C90DA15D], AccurateRip returned [C8DD5BD1]  (AR v2)
Track  3  cannot be verified as accurate (confidence 14)  [C4005981], AccurateRip returned [EE4EA90F]  (AR v2)
Track  4  cannot be verified as accurate (confidence 14)  [0CCD5FDC], AccurateRip returned [FC146ADB]  (AR v2)
Track  5  cannot be verified as accurate (confidence 14)  [73D10B1E], AccurateRip returned [D1729568]  (AR v2)
Track  6  cannot be verified as accurate (confidence 14)  [715E326A], AccurateRip returned [8DB3E6B6]  (AR v2)
Track  7  cannot be verified as accurate (confidence 14)  [A9A775CD], AccurateRip returned [F8E7BDEE]  (AR v2)
Track  8  cannot be verified as accurate (confidence 14)  [BF197F11], AccurateRip returned [CFC0613F]  (AR v2)
Track  9  cannot be verified as accurate (confidence 14)  [E0F56377], AccurateRip returned [96EB9AD2]  (AR v2)
Track 10  cannot be verified as accurate (confidence 13)  [A00EA4DF], AccurateRip returned [D37B2D56]  (AR v2)
Track 11  cannot be verified as accurate (confidence 13)  [64408682], AccurateRip returned [6D035B98]  (AR v2)
Track 12  cannot be verified as accurate (confidence 13)  [5C81DA69], AccurateRip returned [71381E69]  (AR v2)
Track 13  cannot be verified as accurate (confidence 13)  [10540407], AccurateRip returned [0C1BDCF6]  (AR v2)
Track 14  cannot be verified as accurate (confidence 13)  [FF74A79A], AccurateRip returned [22841031]  (AR v2)
Track 15  cannot be verified as accurate (confidence 12)  [6DDA35C9], AccurateRip returned [E62C714E]  (AR v2)
No tracks could be verified as accurate
You may have a different pressing from the one(s) in the database
End of status report

1977 - In Color (00:46:19)

01. Hello There (01:41)
02. Big Eyes (03:09)
03. Downed (04:10)
04. I Want You To Want Me (03:11)
05. You're All Talk (03:34)
06. Oh Caroline (02:59)
07. Clock Strikes Ten (03:02)
08. Southern Girls (03:44)
09. Come On, Come On (02:39)
10. So Good To See You (03:46)
11. Oh Boy (03:10)
12. Southern Girls (03:03)
13. Come On, Come On (02:05)
14. You're All Talk (03:41)
15. Goodnight (02:19)

лог создания рипа

Exact Audio Copy V1.0 beta 3 from 29. August 2011
EAC extraction logfile from 22. April 2012, 8:43
Cheap Trick / In Color
Used drive  : HL-DT-STDVDRAM GSA-H60N   Adapter: 2  ID: 0
Read mode               : Secure
Utilize accurate stream : Yes
Defeat audio cache      : Yes
Make use of C2 pointers : No
Read offset correction                      : 667
Overread into Lead-In and Lead-Out          : No
Fill up missing offset samples with silence : Yes
Delete leading and trailing silent blocks   : No
Null samples used in CRC calculations       : Yes
Used interface                              : Native Win32 interface for Win NT & 2000
Used output format : Internal WAV Routines
Sample format      : 44.100 Hz; 16 Bit; Stereo
TOC of the extracted CD
     Track |   Start  |  Length  | Start sector | End sector
    ---------------------------------------------------------
        1  |  0:00.00 |  1:41.00 |         0    |     7574
        2  |  1:41.00 |  3:09.00 |      7575    |    21749
        3  |  4:50.00 |  4:10.72 |     21750    |    40571
        4  |  9:00.72 |  3:11.48 |     40572    |    54944
        5  | 12:12.45 |  3:34.70 |     54945    |    71064
        6  | 15:47.40 |  2:59.32 |     71065    |    84521
        7  | 18:46.72 |  3:02.30 |     84522    |    98201
        8  | 21:49.27 |  3:44.08 |     98202    |   115009
        9  | 25:33.35 |  2:39.22 |    115010    |   126956
       10  | 28:12.57 |  3:46.25 |    126957    |   143931
       11  | 31:59.07 |  3:10.23 |    143932    |   158204
       12  | 35:09.30 |  3:03.62 |    158205    |   171991
       13  | 38:13.17 |  2:05.70 |    171992    |   181436
       14  | 40:19.12 |  3:41.38 |    181437    |   198049
       15  | 44:00.50 |  2:19.25 |    198050    |   208499
Range status and errors
Selected range
     Filename C:Documents and SettingsAdminРабочий столLossless Galaxy Rip by ALLexxessCheap Trick2008 Original Album Classics (5CD Box Set Epic Records)1977 In ColorCheap Trick - In Color.wav
     Peak level 100.0 %
     Extraction speed 5.8 X
     Range quality 100.0 %
     Test CRC F70CEAA9
     Copy CRC F70CEAA9
     Copy OK
No errors occurred
AccurateRip summary
Track  1  cannot be verified as accurate (confidence 9)  [52BE6EA2], AccurateRip returned [D68DBFCF]  (AR v2)
Track  2  cannot be verified as accurate (confidence 9)  [C95428BB], AccurateRip returned [ABE9A922]  (AR v2)
Track  3  cannot be verified as accurate (confidence 9)  [75483537], AccurateRip returned [BB12A10C]  (AR v2)
Track  4  cannot be verified as accurate (confidence 9)  [57E430D3], AccurateRip returned [B295E0A6]  (AR v2)
Track  5  cannot be verified as accurate (confidence 9)  [00C1DFC8], AccurateRip returned [D5C4CFE3]  (AR v2)
Track  6  cannot be verified as accurate (confidence 9)  [D9AAF891], AccurateRip returned [A0878914]  (AR v2)
Track  7  cannot be verified as accurate (confidence 9)  [F5C0F205], AccurateRip returned [14F12D73]  (AR v2)
Track  8  cannot be verified as accurate (confidence 9)  [34E1D615], AccurateRip returned [90AD9DB4]  (AR v2)
Track  9  cannot be verified as accurate (confidence 9)  [1E3BF722], AccurateRip returned [41FF38D8]  (AR v2)
Track 10  cannot be verified as accurate (confidence 9)  [C7CDC289], AccurateRip returned [A947DEBF]  (AR v2)
Track 11  cannot be verified as accurate (confidence 8)  [A3FB373D], AccurateRip returned [ED104E6E]  (AR v2)
Track 12  cannot be verified as accurate (confidence 8)  [DCC8B720], AccurateRip returned [7B336451]  (AR v2)
Track 13  cannot be verified as accurate (confidence 8)  [E3332466], AccurateRip returned [D26DBA7E]  (AR v2)
Track 14  cannot be verified as accurate (confidence 7)  [31E05C82], AccurateRip returned [AC18D47F]  (AR v2)
Track 15  cannot be verified as accurate (confidence 7)  [C2855172], AccurateRip returned [33D509BF]  (AR v2)
No tracks could be verified as accurate
You may have a different pressing from the one(s) in the database
End of status report

1978 - Heaven Tonight (00:52:44)

01. Surrender (04:15)
02. On Top Of The World (04:02)
03. California Man (03:44)
04. High Roller (03:58)
05. Auf Wiedersehen (03:42)
06. Takin' Me Back (04:52)
07. On The Radio (04:33)
08. Heaven Tonight (05:25)
09. Stiff Competition (03:40)
10. How Are You? (04:21)
11. Oh Claire (01:10)
12. Stiff Competition (04:03)
13. Surrender (04:53)

лог создания рипа

Exact Audio Copy V1.0 beta 3 from 29. August 2011
EAC extraction logfile from 21. April 2012, 20:30
Cheap Trick / Heaven Tonight
Used drive  : HL-DT-STDVDRAM GSA-H60N   Adapter: 2  ID: 0
Read mode               : Secure
Utilize accurate stream : Yes
Defeat audio cache      : Yes
Make use of C2 pointers : No
Read offset correction                      : 667
Overread into Lead-In and Lead-Out          : No
Fill up missing offset samples with silence : Yes
Delete leading and trailing silent blocks   : No
Null samples used in CRC calculations       : Yes
Used interface                              : Native Win32 interface for Win NT & 2000
Used output format : Internal WAV Routines
Sample format      : 44.100 Hz; 16 Bit; Stereo
TOC of the extracted CD
     Track |   Start  |  Length  | Start sector | End sector
    ---------------------------------------------------------
        1  |  0:00.00 |  4:15.67 |         0    |    19191
        2  |  4:15.67 |  4:02.08 |     19192    |    37349
        3  |  8:18.00 |  3:44.60 |     37350    |    54209
        4  | 12:02.60 |  3:58.17 |     54210    |    72076
        5  | 16:01.02 |  3:42.00 |     72077    |    88726
        6  | 19:43.02 |  4:52.73 |     88727    |   110699
        7  | 24:36.00 |  4:33.35 |    110700    |   131209
        8  | 29:09.35 |  5:25.40 |    131210    |   155624
        9  | 34:35.00 |  3:40.05 |    155625    |   172129
       10  | 38:15.05 |  4:21.52 |    172130    |   191756
       11  | 42:36.57 |  1:10.63 |    191757    |   197069
       12  | 43:47.45 |  4:03.27 |    197070    |   215321
       13  | 47:50.72 |  4:53.10 |    215322    |   237306
Range status and errors
Selected range
     Filename C:Documents and SettingsAdminРабочий столLossless Galaxy Rip by ALLexxessCheap Trick2008 Original Album Classics (5CD Box Set Epic Records)1978 Heaven TonightCheap Trick - Heaven Tonight.wav
     Peak level 100.0 %
     Extraction speed 6.0 X
     Range quality 100.0 %
     Test CRC 7D65FA71
     Copy CRC 7D65FA71
     Copy OK
No errors occurred
AccurateRip summary
Track  1  cannot be verified as accurate (confidence 5)  [2F9A04CF], AccurateRip returned [324A643D]  (AR v2)
Track  2  cannot be verified as accurate (confidence 5)  [BA1886F2], AccurateRip returned [C388956C]  (AR v2)
Track  3  cannot be verified as accurate (confidence 5)  [52E44675], AccurateRip returned [E2E8C23A]  (AR v2)
Track  4  cannot be verified as accurate (confidence 5)  [FC8A687D], AccurateRip returned [0FA54A5E]  (AR v2)
Track  5  cannot be verified as accurate (confidence 5)  [A28D8F99], AccurateRip returned [D06AC875]  (AR v2)
Track  6  cannot be verified as accurate (confidence 5)  [29D7898E], AccurateRip returned [88265CFA]  (AR v2)
Track  7  cannot be verified as accurate (confidence 5)  [D5C7A8C1], AccurateRip returned [88D26CC9]  (AR v2)
Track  8  cannot be verified as accurate (confidence 5)  [E63A518A], AccurateRip returned [5D8F9C94]  (AR v2)
Track  9  cannot be verified as accurate (confidence 5)  [0D914A92], AccurateRip returned [484CE49B]  (AR v2)
Track 10  cannot be verified as accurate (confidence 5)  [5BC9A104], AccurateRip returned [731A4DFD]  (AR v2)
Track 11  cannot be verified as accurate (confidence 5)  [1418DD2A], AccurateRip returned [2B0F1A66]  (AR v2)
Track 12  cannot be verified as accurate (confidence 5)  [D5C98030], AccurateRip returned [1C84A439]  (AR v2)
Track 13  cannot be verified as accurate (confidence 5)  [8FD6E9DF], AccurateRip returned [532DA0CC]  (AR v2)
No tracks could be verified as accurate
You may have a different pressing from the one(s) in the database
End of status report

1980 - All Shook Up (00:55:07)

01. Stop This Game (03:56)
02. Just Got Back (02:05)
03. Baby Loves To Rock (03:17)
04. Can't Stop It (But I'm Gonna Try) (03:30)
05. World's Greatest Lover (04:52)
06. High Priest Of Rhythmic Noise (04:12)
07. Love Comes A-Tumblin' Down (03:09)
08. I Love You Honey But I Hate Your Friends (03:50)
09. Go For The Throat (Use Your Own Imagination) (03:05)
10. Who D'King (02:20)
11. Everything Works If You Let It (Single Version) (03:29)
12. Day Tripper (Live) (03:40)
13. Can't Hold On (Live) (05:56)
14. Such A Good Girl (03:06)
15. Take Me I'm Yours (04:34)

лог создания рипа

Exact Audio Copy V1.0 beta 3 from 29. August 2011
EAC extraction logfile from 21. April 2012, 19:54
Cheap Trick / All Shook Up
Used drive  : HL-DT-STDVDRAM GSA-H60N   Adapter: 2  ID: 0
Read mode               : Secure
Utilize accurate stream : Yes
Defeat audio cache      : Yes
Make use of C2 pointers : No
Read offset correction                      : 667
Overread into Lead-In and Lead-Out          : No
Fill up missing offset samples with silence : Yes
Delete leading and trailing silent blocks   : No
Null samples used in CRC calculations       : Yes
Used interface                              : Native Win32 interface for Win NT & 2000
Used output format : Internal WAV Routines
Sample format      : 44.100 Hz; 16 Bit; Stereo
TOC of the extracted CD
     Track |   Start  |  Length  | Start sector | End sector
    ---------------------------------------------------------
        1  |  0:00.00 |  3:56.10 |         0    |    17709
        2  |  3:56.10 |  2:05.17 |     17710    |    27101
        3  |  6:01.27 |  3:17.45 |     27102    |    41921
        4  |  9:18.72 |  3:30.63 |     41922    |    57734
        5  | 12:49.60 |  4:52.35 |     57735    |    79669
        6  | 17:42.20 |  4:12.55 |     79670    |    98624
        7  | 21:55.00 |  3:09.12 |     98625    |   112811
        8  | 25:04.12 |  3:50.40 |    112812    |   130101
        9  | 28:54.52 |  3:05.08 |    130102    |   143984
       10  | 31:59.60 |  2:20.12 |    143985    |   154496
       11  | 34:19.72 |  3:29.63 |    154497    |   170234
       12  | 37:49.60 |  3:40.35 |    170235    |   186769
       13  | 41:30.20 |  5:56.47 |    186770    |   213516
       14  | 47:26.67 |  3:06.15 |    213517    |   227481
       15  | 50:33.07 |  4:34.35 |    227482    |   248066
Range status and errors
Selected range
     Filename C:Documents and SettingsAdminРабочий столLossless Galaxy Rip by ALLexxessCheap Trick2008 Original Album Classics (5CD Box Set Epic Records)1980 All Shook UpCheap Trick - All Shook Up.wav
     Peak level 99.8 %
     Extraction speed 6.1 X
     Range quality 100.0 %
     Test CRC E2AE2C55
     Copy CRC E2AE2C55
     Copy OK
No errors occurred
AccurateRip summary
Track  1  cannot be verified as accurate (confidence 30)  [64429410], AccurateRip returned [C0539474]  (AR v2)
Track  2  cannot be verified as accurate (confidence 31)  [FC12275E], AccurateRip returned [A582D3FA]  (AR v2)
Track  3  cannot be verified as accurate (confidence 32)  [63FE8910], AccurateRip returned [4ABB77F6]  (AR v2)
Track  4  cannot be verified as accurate (confidence 30)  [4CC5F386], AccurateRip returned [169AC058]  (AR v2)
Track  5  cannot be verified as accurate (confidence 30)  [D762C932], AccurateRip returned [62BDFFD4]  (AR v2)
Track  6  cannot be verified as accurate (confidence 31)  [9D216CEE], AccurateRip returned [3FD9747B]  (AR v2)
Track  7  cannot be verified as accurate (confidence 31)  [FE3867FE], AccurateRip returned [B516B4A5]  (AR v2)
Track  8  cannot be verified as accurate (confidence 32)  [2C4DFAA5], AccurateRip returned [60CB0906]  (AR v2)
Track  9  cannot be verified as accurate (confidence 30)  [85BF1979], AccurateRip returned [FB6A8A49]  (AR v2)
Track 10  cannot be verified as accurate (confidence 30)  [5C3A571B], AccurateRip returned [79872AD9]  (AR v2)
Track 11  cannot be verified as accurate (confidence 30)  [050CBBF7], AccurateRip returned [FB904A8D]  (AR v2)
Track 12  cannot be verified as accurate (confidence 30)  [D8127A9D], AccurateRip returned [5A9808C9]  (AR v2)
Track 13  cannot be verified as accurate (confidence 30)  [2D5B3665], AccurateRip returned [E15B3C8E]  (AR v2)
Track 14  cannot be verified as accurate (confidence 29)  [80918C19], AccurateRip returned [3E8F2ECC]  (AR v2)
Track 15  cannot be verified as accurate (confidence 30)  [FA9A6897], AccurateRip returned [11ACFFC3]  (AR v2)
No tracks could be verified as accurate
You may have a different pressing from the one(s) in the database
End of status report

1983 - Next Position Please (00:50:19)

01. I Can't Take It (03:28)
02. Borderline (03:34)
03. I Don't Love Here Anymore (03:51)
04. Next Position Please (02:51)
05. Younger Girls (03:14)
06. Dancing The Night Away (04:58)
07. You Talk To Much (01:55)
08. 3-D (03:37)
09. You Say Jump (03:06)
10. Y.O.Y.O.Y. (04:55)
11. Won't Take No For An Answer (03:13)
12. Heaven's Falling (03:48)
13. Invaders Of The Heart (04:00)
14. Don't Make Our Love A Crime (03:43)

лог создания рипа

Exact Audio Copy V1.0 beta 3 from 29. August 2011
EAC extraction logfile from 21. April 2012, 19:08
Cheap Trick / Next Position Please
Used drive  : HL-DT-STDVDRAM GSA-H60N   Adapter: 2  ID: 0
Read mode               : Secure
Utilize accurate stream : Yes
Defeat audio cache      : Yes
Make use of C2 pointers : No
Read offset correction                      : 667
Overread into Lead-In and Lead-Out          : No
Fill up missing offset samples with silence : Yes
Delete leading and trailing silent blocks   : No
Null samples used in CRC calculations       : Yes
Used interface                              : Native Win32 interface for Win NT & 2000
Used output format : Internal WAV Routines
Sample format      : 44.100 Hz; 16 Bit; Stereo
TOC of the extracted CD
     Track |   Start  |  Length  | Start sector | End sector
    ---------------------------------------------------------
        1  |  0:00.00 |  3:28.00 |         0    |    15599
        2  |  3:28.00 |  3:34.60 |     15600    |    31709
        3  |  7:02.60 |  3:51.47 |     31710    |    49081
        4  | 10:54.32 |  2:51.18 |     49082    |    61924
        5  | 13:45.50 |  3:14.60 |     61925    |    76534
        6  | 17:00.35 |  4:58.17 |     76535    |    98901
        7  | 21:58.52 |  1:55.65 |     98902    |   107591
        8  | 23:54.42 |  3:37.55 |    107592    |   123921
        9  | 27:32.22 |  3:06.23 |    123922    |   137894
       10  | 30:38.45 |  4:55.27 |    137895    |   160046
       11  | 35:33.72 |  3:13.58 |    160047    |   174579
       12  | 38:47.55 |  3:48.00 |    174580    |   191679
       13  | 42:35.55 |  4:00.07 |    191680    |   209686
       14  | 46:35.62 |  3:43.18 |    209687    |   226429
Range status and errors
Selected range
     Filename C:Documents and SettingsAdminРабочий столLossless Galaxy Rip by ALLexxessCheap Trick2008 Original Album Classics (5CD Box Set Epic Records)1983 Next Position PleaseCheap Trick - Next Position Please.wav
     Peak level 100.0 %
     Extraction speed 5.8 X
     Range quality 100.0 %
     Test CRC F30427EB
     Copy CRC F30427EB
     Copy OK
No errors occurred
AccurateRip summary
Track  1  accurately ripped (confidence 3)  [35571903]  (AR v2)
Track  2  accurately ripped (confidence 3)  [42EAF512]  (AR v2)
Track  3  accurately ripped (confidence 3)  [3EBAD158]  (AR v2)
Track  4  accurately ripped (confidence 3)  [3CE41350]  (AR v2)
Track  5  accurately ripped (confidence 3)  [1631FD55]  (AR v2)
Track  6  accurately ripped (confidence 3)  [AEF73D10]  (AR v2)
Track  7  accurately ripped (confidence 3)  [4B9F64F6]  (AR v2)
Track  8  accurately ripped (confidence 3)  [54CEC9BE]  (AR v2)
Track  9  accurately ripped (confidence 3)  [9476D472]  (AR v2)
Track 10  accurately ripped (confidence 3)  [0BFD011A]  (AR v2)
Track 11  accurately ripped (confidence 3)  [1551AB26]  (AR v2)
Track 12  accurately ripped (confidence 3)  [A5D8843D]  (AR v2)
Track 13  accurately ripped (confidence 3)  [CE983D9E]  (AR v2)
Track 14  accurately ripped (confidence 3)  [56091209]  (AR v2)
All tracks accurately ripped
End of status report

CD covers

Box Set 5 Original Albums Classics (1978 - 1990) 2011

-

1978 - At Budokan (00:42:21)

01. Hello There (02:26)
02. Come On, Come On (03:18)
03. Lookout (03:01)
04. Big Eyes (03:55)
05. Need Your Love (08:57)
06. Ain't That A Shame (05:17)
07. I Want You To Want Me (03:45)
08. Surrender (04:24)
09. Goodnight (03:11)
10. Clock Strikes Ten (04:03)

лог создания рипа

Exact Audio Copy V1.0 beta 3 from 29. August 2011
EAC extraction logfile from 22. April 2012, 16:20
Cheap Trick / At Budokan
Used drive  : HL-DT-STDVDRAM GSA-H60N   Adapter: 2  ID: 0
Read mode               : Secure
Utilize accurate stream : Yes
Defeat audio cache      : Yes
Make use of C2 pointers : No
Read offset correction                      : 667
Overread into Lead-In and Lead-Out          : No
Fill up missing offset samples with silence : Yes
Delete leading and trailing silent blocks   : No
Null samples used in CRC calculations       : Yes
Used interface                              : Native Win32 interface for Win NT & 2000
Used output format : Internal WAV Routines
Sample format      : 44.100 Hz; 16 Bit; Stereo
TOC of the extracted CD
     Track |   Start  |  Length  | Start sector | End sector
    ---------------------------------------------------------
        1  |  0:00.00 |  2:26.47 |         0    |    10996
        2  |  2:26.47 |  3:18.13 |     10997    |    25859
        3  |  5:44.60 |  3:01.25 |     25860    |    39459
        4  |  8:46.10 |  3:55.62 |     39460    |    57146
        5  | 12:41.72 |  8:57.63 |     57147    |    97484
        6  | 21:39.60 |  5:17.15 |     97485    |   121274
        7  | 26:57.00 |  3:45.22 |    121275    |   138171
        8  | 30:42.22 |  4:24.38 |    138172    |   158009
        9  | 35:06.60 |  3:11.20 |    158010    |   172354
       10  | 38:18.05 |  4:03.55 |    172355    |   190634
Range status and errors
Selected range
     Filename C:Documents and SettingsAdminРабочий столLossless Galaxy Rip by ALLexxessCheap Trick2011 Original Album Classics (5CD Box Set Epic Records)1978 At Budokan (Live)Cheap Trick - At Budokan.wav
     Peak level 100.0 %
     Extraction speed 5.4 X
     Range quality 99.9 %
     Test CRC B94EB68B
     Copy CRC B94EB68B
     Copy OK
No errors occurred
AccurateRip summary
Track  1  not present in database
Track  2  not present in database
Track  3  not present in database
Track  4  not present in database
Track  5  not present in database
Track  6  not present in database
Track  7  not present in database
Track  8  not present in database
Track  9  not present in database
Track 10  not present in database
None of the tracks are present in the AccurateRip database
End of status report

1979 - Dream Police (01:04:52)

01. Dream Police (03:54)
02. Way Of The World (03:38)
03. The House Is Rockin' (With Domestic Problems) (05:11)
04. Gonna Raise Hell (09:20)
05. I'll Be With You Tonight (03:51)
06. Voices (04:22)
07. Writing On The Wall (03:27)
08. I Know What I Want (04:30)
09. Need Your Love (07:40)
10. The House Is Rockin' (With Domestic Problems) (Live) (06:16)
11. Way Of The World (Live) (04:00)
12. Dream Police (No Strings Version) (03:53)
13. I Know What I Want (Live) (04:44)

лог создания рипа

Exact Audio Copy V1.0 beta 3 from 29. August 2011
EAC extraction logfile from 22. April 2012, 10:37
Cheap Trick / Dream Police
Used drive  : HL-DT-STDVDRAM GSA-H60N   Adapter: 2  ID: 0
Read mode               : Secure
Utilize accurate stream : Yes
Defeat audio cache      : Yes
Make use of C2 pointers : No
Read offset correction                      : 667
Overread into Lead-In and Lead-Out          : No
Fill up missing offset samples with silence : Yes
Delete leading and trailing silent blocks   : No
Null samples used in CRC calculations       : Yes
Used interface                              : Native Win32 interface for Win NT & 2000
Used output format : Internal WAV Routines
Sample format      : 44.100 Hz; 16 Bit; Stereo
TOC of the extracted CD
     Track |   Start  |  Length  | Start sector | End sector
    ---------------------------------------------------------
        1  |  0:00.00 |  3:54.00 |         0    |    17549
        2  |  3:54.00 |  3:38.52 |     17550    |    33951
        3  |  7:32.52 |  5:11.73 |     33952    |    57349
        4  | 12:44.50 |  9:20.25 |     57350    |    99374
        5  | 22:05.00 |  3:51.55 |     99375    |   116754
        6  | 25:56.55 |  4:22.35 |    116755    |   136439
        7  | 30:19.15 |  3:27.02 |    136440    |   151966
        8  | 33:46.17 |  4:30.58 |    151967    |   172274
        9  | 38:17.00 |  7:40.37 |    172275    |   206811
       10  | 45:57.37 |  6:16.13 |    206812    |   235024
       11  | 52:13.50 |  4:00.55 |    235025    |   253079
       12  | 56:14.30 |  3:53.30 |    253080    |   270584
       13  | 60:07.60 |  4:44.30 |    270585    |   291914
Range status and errors
Selected range
     Filename C:Documents and SettingsAdminРабочий столLossless Galaxy Rip by ALLexxessCheap Trick2011 Original Album Classics (5CD Box Set Epic Records)1979 Dream PoliceCheap Trick - Dream Police.wav
     Peak level 99.8 %
     Extraction speed 6.1 X
     Range quality 99.9 %
     Test CRC E3FC1AD3
     Copy CRC E3FC1AD3
     Copy OK
No errors occurred
AccurateRip summary
Track  1  cannot be verified as accurate (confidence 49)  [8FCF609D], AccurateRip returned [80A76977]  (AR v2)
Track  2  cannot be verified as accurate (confidence 50)  [A769D610], AccurateRip returned [88707FB4]  (AR v2)
Track  3  cannot be verified as accurate (confidence 49)  [AEFC5028], AccurateRip returned [CB9D5561]  (AR v2)
Track  4  cannot be verified as accurate (confidence 50)  [D8BDC294], AccurateRip returned [B324DB88]  (AR v2)
Track  5  cannot be verified as accurate (confidence 50)  [2EEE7C29], AccurateRip returned [02FF768C]  (AR v2)
Track  6  cannot be verified as accurate (confidence 48)  [0028A9E4], AccurateRip returned [CCE2AD02]  (AR v2)
Track  7  cannot be verified as accurate (confidence 48)  [5057A087], AccurateRip returned [99ACAC10]  (AR v2)
Track  8  cannot be verified as accurate (confidence 49)  [2324606C], AccurateRip returned [6A503E73]  (AR v2)
Track  9  cannot be verified as accurate (confidence 48)  [C5F2F421], AccurateRip returned [95ACD41B]  (AR v2)
Track 10  cannot be verified as accurate (confidence 45)  [79AA216C], AccurateRip returned [F7125910]  (AR v2)
Track 11  cannot be verified as accurate (confidence 46)  [45AC45B9], AccurateRip returned [2C56B564]  (AR v2)
Track 12  cannot be verified as accurate (confidence 44)  [34EF6E4A], AccurateRip returned [271DD081]  (AR v2)
Track 13  cannot be verified as accurate (confidence 44)  [D4E6E7E5], AccurateRip returned [8B90DA30]  (AR v2)
No tracks could be verified as accurate
You may have a different pressing from the one(s) in the database
End of status report

1982 - One On One (00:34:33)

01. I Want You (03:02)
02. One On One (03:05)
03. If You Want My Love (03:36)
04. Oo La La La (03:15)
05. Lookin' Out For Number One (03:44)
06. She's Tight (02:59)
07. Time Is Runnin' (02:20)
08. Saturday At Midnight (02:58)
09. Love's Got A Hold On Me (02:36)
10. I Want Be Man (03:19)
11. Four Letter Word (03:37)

лог создания рипа

Exact Audio Copy V1.0 beta 3 from 29. August 2011
EAC extraction logfile from 22. April 2012, 15:45
Cheap Trick / One On One
Used drive  : HL-DT-STDVDRAM GSA-H60N   Adapter: 2  ID: 0
Read mode               : Secure
Utilize accurate stream : Yes
Defeat audio cache      : Yes
Make use of C2 pointers : No
Read offset correction                      : 667
Overread into Lead-In and Lead-Out          : No
Fill up missing offset samples with silence : Yes
Delete leading and trailing silent blocks   : No
Null samples used in CRC calculations       : Yes
Used interface                              : Native Win32 interface for Win NT & 2000
Used output format : Internal WAV Routines
Sample format      : 44.100 Hz; 16 Bit; Stereo
TOC of the extracted CD
     Track |   Start  |  Length  | Start sector | End sector
    ---------------------------------------------------------
        1  |  0:00.00 |  3:02.00 |         0    |    13649
        2  |  3:02.00 |  3:05.55 |     13650    |    27579
        3  |  6:07.55 |  3:36.20 |     27580    |    43799
        4  |  9:44.00 |  3:15.41 |     43800    |    58465
        5  | 12:59.41 |  3:44.34 |     58466    |    75299
        6  | 16:44.00 |  2:59.00 |     75300    |    88724
        7  | 19:43.00 |  2:20.00 |     88725    |    99224
        8  | 22:03.00 |  2:58.00 |     99225    |   112574
        9  | 25:01.00 |  2:36.04 |    112575    |   124278
       10  | 27:37.04 |  3:19.52 |    124279    |   139255
       11  | 30:56.56 |  3:37.19 |    139256    |   155549
Range status and errors
Selected range
     Filename C:Documents and SettingsAdminРабочий столLossless Galaxy Rip by ALLexxessCheap Trick2011 Original Album Classics (5CD Box Set Epic Records)1982 One On OneCheap Trick - One On One.wav
     Peak level 100.0 %
     Extraction speed 5.2 X
     Range quality 99.9 %
     Test CRC 44594EEB
     Copy CRC 44594EEB
     Copy OK
No errors occurred
AccurateRip summary
Track  1  not present in database
Track  2  not present in database
Track  3  not present in database
Track  4  not present in database
Track  5  not present in database
Track  6  not present in database
Track  7  not present in database
Track  8  not present in database
Track  9  not present in database
Track 10  not present in database
Track 11  not present in database
None of the tracks are present in the AccurateRip database
End of status report

1988 - Lap Of Luxury (00:42:21)

01. Let Go (04:28)
02. No Mercy (03:57)
03. The Flame (05:40)
04. Space (04:16)
05. Never Had A Lot To Lose (03:23)
06. Don't Be Cruel (03:11)
07. Wrong Side Of Love (04:02)
08. All We Need Is A Dream (04:22)
09. Ghost Town (04:13)
10. All Wound Up (04:45)

лог создания рипа

Exact Audio Copy V1.0 beta 3 from 29. August 2011
EAC extraction logfile from 23. April 2012, 17:50
Cheap Trick / Lap Of Luxury
Used drive  : HL-DT-STDVDRAM GSA-H60N   Adapter: 2  ID: 0
Read mode               : Secure
Utilize accurate stream : Yes
Defeat audio cache      : Yes
Make use of C2 pointers : No
Read offset correction                      : 667
Overread into Lead-In and Lead-Out          : No
Fill up missing offset samples with silence : Yes
Delete leading and trailing silent blocks   : No
Null samples used in CRC calculations       : Yes
Used interface                              : Native Win32 interface for Win NT & 2000
Used output format : Internal WAV Routines
Sample format      : 44.100 Hz; 16 Bit; Stereo
TOC of the extracted CD
     Track |   Start  |  Length  | Start sector | End sector
    ---------------------------------------------------------
        1  |  0:00.00 |  4:28.00 |         0    |    20099
        2  |  4:28.00 |  3:57.00 |     20100    |    37874
        3  |  8:25.00 |  5:40.32 |     37875    |    63406
        4  | 14:05.32 |  4:16.25 |     63407    |    82631
        5  | 18:21.57 |  3:23.55 |     82632    |    97911
        6  | 21:45.37 |  3:11.38 |     97912    |   112274
        7  | 24:57.00 |  4:02.47 |    112275    |   130471
        8  | 28:59.47 |  4:22.63 |    130472    |   150184
        9  | 33:22.35 |  4:13.60 |    150185    |   169219
       10  | 37:36.20 |  4:45.02 |    169220    |   190596
Range status and errors
Selected range
     Filename C:Documents and SettingsAdminРабочий столLossless Galaxy Rip by ALLexxessCheap Trick2011 Original Album Classics (5CD Box Set Epic Records)1988 Lap Of LuxuryCheap Trick - Lap Of Luxury.wav
     Peak level 97.7 %
     Extraction speed 5.7 X
     Range quality 100.0 %
     Test CRC 47F34423
     Copy CRC 47F34423
     Copy OK
No errors occurred
AccurateRip summary
Track  1  not present in database
Track  2  not present in database
Track  3  not present in database
Track  4  not present in database
Track  5  not present in database
Track  6  not present in database
Track  7  not present in database
Track  8  not present in database
Track  9  not present in database
Track 10  not present in database
None of the tracks are present in the AccurateRip database
End of status report

1990 - Busted (00:46:49)

01. Back 'N Blue (04:42)
02. I Can't Understand It (03:30)
03. Wherever Would I Be (04:06)
04. If You Need Me (04:46)
05. Can't Stop Fallin' Into Love (03:49)
06. Busted (04:06)
07. Walk Away (03:43)
08. You Drive, I'll Steer (04:34)
09. When You Need Someone (05:18)
10. Had To Make You Mine (03:15)
11. Rock 'N' Roll Tonight (04:56)

лог создания рипа

Exact Audio Copy V1.0 beta 3 from 29. August 2011
EAC extraction logfile from 22. April 2012, 9:17
Cheap Trick / Busted
Used drive  : HL-DT-STDVDRAM GSA-H60N   Adapter: 2  ID: 0
Read mode               : Secure
Utilize accurate stream : Yes
Defeat audio cache      : Yes
Make use of C2 pointers : No
Read offset correction                      : 667
Overread into Lead-In and Lead-Out          : No
Fill up missing offset samples with silence : Yes
Delete leading and trailing silent blocks   : No
Null samples used in CRC calculations       : Yes
Used interface                              : Native Win32 interface for Win NT & 2000
Used output format : Internal WAV Routines
Sample format      : 44.100 Hz; 16 Bit; Stereo
TOC of the extracted CD
     Track |   Start  |  Length  | Start sector | End sector
    ---------------------------------------------------------
        1  |  0:00.00 |  4:42.56 |         0    |    21205
        2  |  4:42.56 |  3:30.18 |     21206    |    36973
        3  |  8:12.74 |  4:06.04 |     36974    |    55427
        4  | 12:19.03 |  4:46.26 |     55428    |    76903
        5  | 17:05.29 |  3:49.30 |     76904    |    94108
        6  | 20:54.59 |  4:06.19 |     94109    |   112577
        7  | 25:01.03 |  3:43.17 |    112578    |   129319
        8  | 28:44.20 |  4:34.31 |    129320    |   149900
        9  | 33:18.51 |  5:18.34 |    149901    |   173784
       10  | 38:37.10 |  3:15.61 |    173785    |   188470
       11  | 41:52.71 |  4:56.28 |    188471    |   210698
Range status and errors
Selected range
     Filename C:Documents and SettingsAdminРабочий столLossless Galaxy Rip by ALLexxessCheap Trick2011 Original Album Classics (5CD Box Set Epic Records)1990 BustedCheap Trick - Busted.wav
     Peak level 100.0 %
     Extraction speed 5.8 X
     Range quality 100.0 %
     Test CRC 29736061
     Copy CRC 29736061
     Copy OK
No errors occurred
AccurateRip summary
Track  1  not present in database
Track  2  not present in database
Track  3  not present in database
Track  4  not present in database
Track  5  not present in database
Track  6  not present in database
Track  7  not present in database
Track  8  not present in database
Track  9  not present in database
Track 10  not present in database
Track 11  not present in database
None of the tracks are present in the AccurateRip database
End of status report

CD Cover

-

Об исполнителе (группе)

Одна из наиболее интересных рок-групп, "Cheap Trick", была сформирована в Рокфорде (штат Иллинойс) в 1974 году. Рик Нильсен (р. 22 декабря 1946; гитара, вокал) и Том Петерсон (р. 9 мая 1950; бас, вокал) начинали свою музыкальную карьеру в разных школьных группах, а потом играли вместе в ансамбле "Fuse". Этот проект просуществовал недолго и был свернут при завершении записи дебютного альбома, после чего парни сформировали новую группу, "Sick Man of Europe". Впоследствии к ним присоединились барабанщик Бан И. Карлос (Брэд Карлсон, р. 12 июня 1951), и поющий гитарист Робин Зандер (р. 23 января 1952), и в 1974-м команда переименовалась в "Cheap Trick". За один только 1975 год чиптриковцы исколесили весь Средний Запад, приобретя репутацию солидного концертного коллектива.
Ими заинтересовался продюсер "Aerosmith" Джек Дуглас, который помог заключить контракт с компанией "Epic Records". На протяжении пяти недель музыканты работали в студии, в результате чего на свет появился дебютный альбом, сделанный в стиле традиционного коммерческого поп-хард-рока. Хотя диск продавался неважно, рецензии на него были исключительно положительными.
Тем временем "Cheap Trick" активно гастролировали, выступая в качестве разогревающей группы с такими монстрами как "Kiss", "Queen", "Journey". Два следующих альбома получились более мелодичными и были приняты достаточно тепло, хотя о серьезном успехе говорить пока не приходилось. Прорыв случился после того как музыканты отправились на гастроли в Японию. Их выступление в Будокане произвело настоящий фурор, и "Cheap Trick" моментально стали суперзвездами в Стране Восходящего Солнца. Концертник "Live at Budokan" получил платиновый статус, и на этой волне группа наконец-то добилась и американской популярности. Очередной студийный альбом, "Dream Police", содержавший подборку красиво аранжированных песен, стал одной из наиболее коммерческих успешных работ "Cheap Trick".
Однако следующий диск, "All Shook Up", спродюсированный Джорджем Мартином получился более экспериментальным, и поэтому платина сменилась золотом. Вскоре, недовольный положением дел, ушел Петерсон, а место бас-гитариста занял Джон Брант. Ни трехаккордный "One To One", ни откровенно попсовый "Next Position Please" не имели коммерческого успеха, но альбом "Standing On The Edge" уже подавал надежды на возрождение былой славы.
После выхода провального "The Doctor" в команду вернулся Петерсон, и восстановление оригинального состава ознаменовалось возрождением популярности "Cheap Trick". Диск "Lap Of Luxury" достиг мультиплатинового статуса, а сингл "The Flame" расположился на самой вершине "Billboard". К сожалению, закрепить успех не удалось, и спустя год после выхода "Busted" лейбл выставил команду за дверь. Похожая история произошла и с выпущенным на "Warner Bros" диском "Woke up with a Monster". В 1997 году "Cheap Trick" на одноименном альбоме предприняли попытку вернуться к саунду 20-летней давности, однако на сей раз дело было испорчено тем, что выпускающая фирма "Red Ant Alliance" вскоре после релиза оказалась банкротом.
В конце 90-х и начале нового века коллектив занимался гастрольной деятельностью, выпуском концертников и переизданием раннего материала. Производство студийных альбомов было восстановлено только в 2003 году. Но если "Special One" не вызвал у публики особого интереса, то с "RockFord" группа действительно вернулась в форму и снискала похвальные отклики как со стороны критиков, так и со стороны обычных слушателей.
Discography
Studio albums
Cheap Trick (1977)
In Color (1977)
Heaven Tonight (1978)
Dream Police (1979)
All Shook Up (1980)
Found All The Parts EP (2 live tracks, 2 studio tracks) (1980)
One on One (1982)
Next Position Please (1983)
Standing on the Edge (1985)
The Doctor (1986)
Lap of Luxury (1988)
Busted (1990)
Woke Up With A Monster (1994)
Cheap Trick (1997)
Special One (2003)
Rockford (2006)
The Latest (2009)
Live albums
Cheap Trick at Budokan (1978)
Cheap Trick at Budokan: The Complete Concert (1998)
Music for Hangovers (1999)
Silver (2001) Re-released (2004)
Budokan!! (2008)
Sgt. Pepper Live (2009)
--Не забываем говорить
[Профиль] [ЛС]
Показать сообщения:    

Текущее время: Сегодня 18:18

Часовой пояс: GMT



Вы не можете начинать темы
Вы не можете отвечать на сообщения
Вы не можете редактировать свои сообщения
Вы не можете удалять свои сообщения
Вы не можете голосовать в опросах
Вы не можете прикреплять файлы к сообщениям
Вы не можете скачивать файлы