C.C. Catch - Welcome To The Heartbreak Hotel (1986) Germany, 1st Press [FLAC|Lossless]<EuroDisco>

 
Автор Сообщение

sergej644 ®

Пол:

Стаж: 4 года 11 месяцев

Сообщений: 6046

Откуда: Soviet Union



Награды: Нет

Торрент-статистика

Создавать темы 24-Дек-2014 22:24

[Цитировать]

-C.C. Catch - Welcome To The Heartbreak Hotel (1986) Germany, 1st Press- Год: 1986
Лейбл: Hansa
Каталог #: 258 064
Жанр: EuroDisco
Продолжительность: 00:36:19
Кодек: FLAC
Битрейт: Lossless
Тип битрейта: image +.cue
Треклист:
01. Heartbreak Hotel 3:40
02. Picture Blue Eyes 3:35
03. Tears Won't Wash Away My Heartache 4:24
04. V.I.P. (They're Callin' Me Tonight) 3:33
05. You Can't Run Away From It 3:17
06. Heaven And Hell 3:46
07. Hollywood Nights 3:17
08. Born On The Wind 3:55
09. Wild Fire 3:42
10. Stop - Draggin' My Heart Around 3:09

Отчёт ЕАС&#58;

Exact Audio Copy V1.0 beta 3 from 29. August 2011
Отчёт EAC об извлечении, выполненном 19. ноября 2011, 1:36
C.C.Catch / Welcome To The Heartbreak Hotel
Дисковод: PLEXTOR CD-R   PREMIUM2   Adapter: 0  ID: 0
Режим чтения                 : Достоверность
Использование точного потока : Да
Отключение кэша аудио        : Да
Использование указателей C2  : Нет
Коррекция смещения при чтении                     : 30
Способность читать области Lead-in и Lead-out     : Нет
Заполнение пропущенных сэмплов тишиной            : Да
Удаление блоков с тишиной в начале и конце        : Нет
При вычислениях CRC использовались нулевые сэмплы : Да
Интерфейс                                         : Встроенный Win32-интерфейс для Win NT/2000
Выходной формат : Внутренние WAV-операции
Формат сэмплов  : 44.100 Гц; 16 бит; стерео
TOC извлечённого CD
     Трек |   Старт  | Длительность | Начальный сектор | Конечный сектор
    ---------------------------------------------------------------------
       1  |  0:00.33 |    3:40.00   |          33      |      16532
       2  |  3:40.33 |    3:35.00   |       16533      |      32657
       3  |  7:15.33 |    4:24.00   |       32658      |      52457
       4  | 11:39.33 |    3:33.00   |       52458      |      68432
       5  | 15:12.33 |    3:17.00   |       68433      |      83207
       6  | 18:29.33 |    3:46.00   |       83208      |     100157
       7  | 22:15.33 |    3:17.00   |      100158      |     114932
       8  | 25:32.33 |    3:55.50   |      114933      |     132607
       9  | 29:28.08 |    3:42.05   |      132608      |     149262
      10  | 33:10.13 |    3:09.20   |      149263      |     163457
Характеристики диапазона извлечения и сообщения об ошибках
Выбранный диапазон
     Имя файла C:\Users\Павел\Desktop\CCC-2\C.C.Catch - Welcome To The Heartbreak Hotel.wav
     Пиковый уровень 86.5 %
     Скорость извлечения 5.4 X
     Качество диапазона 100.0 %
     CRC теста EC0F0192
     CRC копии EC0F0192
     Копирование... OK
Ошибок не произошло
AccurateRip: сводка
Трек  1  : извлечено точно (доверие 4)  [9169977C]  (AR v1)
Трек  2  : извлечено точно (доверие 4)  [EB053177]  (AR v1)
Трек  3  : извлечено точно (доверие 4)  [03B11181]  (AR v1)
Трек  4  : извлечено точно (доверие 4)  [BB95228B]  (AR v1)
Трек  5  : извлечено точно (доверие 4)  [85A40C9B]  (AR v1)
Трек  6  : извлечено точно (доверие 4)  [7BF4CE4C]  (AR v1)
Трек  7  : извлечено точно (доверие 4)  [288F25DC]  (AR v1)
Трек  8  : извлечено точно (доверие 4)  [C5813C17]  (AR v1)
Трек  9  : извлечено точно (доверие 4)  [5A6A6123]  (AR v1)
Трек 10  : извлечено точно (доверие 4)  [07985449]  (AR v1)
Все треки извлечены точно
Конец отчёта

Отчёт auCDtect Task manager&#58;

-----------------------
DON'T MODIFY THIS FILE
-----------------------
PERFORMER: auCDtect Task Manager, ver. 1.5.1RC4 build 1.5.1.5
Copyright (c) 2008-2010 y-soft. All rights reserved
http://y-soft.org
ANALYZER: auCDtect: CD records authenticity detector, version 0.8.2
Copyright (c) 2004 Oleg Berngardt. All rights reserved.
Copyright (c) 2004 Alexander Djourik. All rights reserved.
FILE: C.C.Catch - Welcome To The Heartbreak Hotel.flac
  Size: 251801839 Hash: 151B00DAAC9044D4CC2932A68B3A2347 Accuracy: -m0
  Conclusion: CDDA 99%
  Signature: 1E77DEF6EB2A6711947DC4FF40D66A3E50C8F835

Содержание индексной карты (.CUE&#41;&#58;

REM GENRE Pop
REM DATE 1986
REM DISCID 6F08830A
REM COMMENT "ExactAudioCopy v1.0b3"
CATALOG 4007192580644
PERFORMER "C.C.Catch"
TITLE "Welcome To The Heartbreak Hotel"
FILE "C.C.Catch - Welcome To The Heartbreak Hotel.flac" WAVE
  TRACK 01 AUDIO
    TITLE "Heartbreak Hotel"
    PERFORMER "C.C.Catch"
    INDEX 00 00:00:00
    INDEX 01 00:00:33
  TRACK 02 AUDIO
    TITLE "Picture Blue Eyes"
    PERFORMER "C.C.Catch"
    INDEX 00 03:36:05
    INDEX 01 03:40:33
  TRACK 03 AUDIO
    TITLE "Tears Won't Wash Away My Heartache"
    PERFORMER "C.C.Catch"
    INDEX 00 07:12:33
    INDEX 01 07:15:33
  TRACK 04 AUDIO
    TITLE "V.I.P (They're Callin' Me Tonight)"
    PERFORMER "C.C.Catch"
    INDEX 00 11:35:60
    INDEX 01 11:39:33
  TRACK 05 AUDIO
    TITLE "You Can't Run Away From It"
    PERFORMER "C.C.Catch"
    INDEX 00 15:07:45
    INDEX 01 15:12:33
  TRACK 06 AUDIO
    TITLE "Heaven And Hell"
    PERFORMER "C.C.Catch"
    INDEX 00 18:25:55
    INDEX 01 18:29:33
  TRACK 07 AUDIO
    TITLE "Hollywood Nights"
    PERFORMER "C.C.Catch"
    INDEX 00 22:11:68
    INDEX 01 22:15:33
  TRACK 08 AUDIO
    TITLE "Born On The Wind"
    PERFORMER "C.C.Catch"
    INDEX 00 25:27:55
    INDEX 01 25:32:33
  TRACK 09 AUDIO
    TITLE "Wild Fire"
    PERFORMER "C.C.Catch"
    INDEX 00 29:23:55
    INDEX 01 29:28:08
  TRACK 10 AUDIO
    TITLE "Stop - Draggin' My Heart Around"
    PERFORMER "C.C.Catch"
    INDEX 00 33:06:13
    INDEX 01 33:10:13
[Профиль] [ЛС]

Создавать темы 13-Авг-2015 10:44 (спустя 7 месяцев 20 дней)

Топик был перенесен из форума Зарубежная в форум Technopop, Eurodance, Disco
sergej644
 
Показать сообщения:    

Текущее время: Сегодня 00:29

Часовой пояс: GMT



Вы не можете начинать темы
Вы не можете отвечать на сообщения
Вы не можете редактировать свои сообщения
Вы не можете удалять свои сообщения
Вы не можете голосовать в опросах
Вы не можете прикреплять файлы к сообщениям
Вы не можете скачивать файлы