C.C. Catch - In The Mix - 80's Best (2002) [FLAC|Lossless]<Disco, Euro House, Synth-pop>

 
Автор Сообщение

sergej644 ®

Пол:

Стаж: 4 года 11 месяцев

Сообщений: 6044

Откуда: Soviet Union



Награды: Нет

Торрент-статистика

Создавать темы 24-Дек-2014 23:14

[Цитировать]

-C.C. Catch - In The Mix - 80's Best (2002)- Год: 2002
Жанр: Disco, Euro House, Synth-pop
Лейбл: Ariola Express
Каталог #: 74321 97092 2
Продолжительность: 00:58:17-Кодек: FLAC
Тип рипа: image + .cue
Битрейт: Lossless-Треклист:
01. Soul Survivor ('98 Rap Version feat. Krayzee) (3:04)
02. I Can Lose My Heart Tonight (Extended Club Remix) (5:52)
03. Strangers By Night (Maxi-Version) (5:44)
04. One Night's Not Enough (Maxi-Version) (5:18)
05. Heartbreak Hotel (Room 69-Mix) (4:56)
06. House Of Mystic Lights (Long Version Dance Mix) (4:09)
07. Back Seat Of Your Cadillac (Extended Version) (5:22)
08. Heartbeat City (Maxi Mix) (4:57)
09. Summer Kisses (Extended Version) (6:10)
10. Baby I Need Your Love (Long Version) (4:46)
11. C.C. Catch-Megamix (Long Version feat. Krayzee) (8:00)-

Отчёт ЕАС&#58;

Exact Audio Copy V0.99 prebeta 5 from 4. May 2009
Отчёт EAC об извлечении, выполненном 7. апреля 2010, 23:13
C.C. Catch / In The Mix - 80's Best
Дисковод: ASUS    DRW-2014S1T   Adapter: 3  ID: 0
Режим чтения                 : Достоверность
Использование точного потока : Да
Отключение кэша аудио        : Да
Использование указателей C2  : Нет
Коррекция смещения при чтении                     : 6
Способность читать области Lead-in и Lead-out     : Нет
Заполнение пропущенных сэмплов тишиной            : Да
Удаление блоков с тишиной в начале и конце        : Нет
При вычислениях CRC использовались нулевые сэмплы : Да
Интерфейс                                         : Установленный внешний ASPI-интерфейс
Выходной формат : Внутренние WAV-операции
Формат сэмплов  : 44.100 Гц; 16 бит; стерео
TOC извлечённого CD
     Трек |   Старт  | Длительность | Начальный сектор | Конечный сектор
    ---------------------------------------------------------------------
       1  |  0:00.00 |    3:04.10   |           0      |      13809
       2  |  3:04.10 |    5:51.57   |       13810      |      40191
       3  |  8:55.67 |    5:43.39   |       40192      |      65955
       4  | 14:39.31 |    5:17.52   |       65956      |      89782
       5  | 19:57.08 |    4:55.59   |       89783      |     111966
       6  | 24:52.67 |    4:09.22   |      111967      |     130663
       7  | 29:02.14 |    5:21.68   |      130664      |     154806
       8  | 34:24.07 |    4:56.66   |      154807      |     177072
       9  | 39:20.73 |    6:09.67   |      177073      |     204814
      10  | 45:30.65 |    4:45.43   |      204815      |     226232
      11  | 50:16.33 |    8:00.29   |      226233      |     262261
Характеристики диапазона извлечения и сообщения об ошибках
Выбранный диапазон
     Имя файла Z:\Temp\C.C. Catch - In The Mix - 80's Best.wav
     Пиковый уровень 98.8 %
     Качество диапазона 100.0 %
     CRC теста DD9FB16D
     CRC копии DD9FB16D
     Копирование... OK
Ошибок не произошло
AccurateRip: сводка
Трек  1  точное извлечение (доверие 4)  [A8E1A8A9]
Трек  2  точное извлечение (доверие 4)  [56DB3EEB]
Трек  3  точное извлечение (доверие 4)  [7F6D1AEC]
Трек  4  точное извлечение (доверие 4)  [890F6231]
Трек  5  точное извлечение (доверие 4)  [62F12858]
Трек  6  точное извлечение (доверие 4)  [495FE4E2]
Трек  7  точное извлечение (доверие 4)  [FF25B089]
Трек  8  точное извлечение (доверие 4)  [7EECAA5B]
Трек  9  точное извлечение (доверие 4)  [77C3A951]
Трек 10  точное извлечение (доверие 4)  [13AC48BB]
Трек 11  точное извлечение (доверие 4)  [98098DA7]
Все треки извлечены точно
Конец отчёта

Отчёт auCDtect Task manager&#58;

-----------------------
DON'T MODIFY THIS FILE
-----------------------
PERFORMER: auCDtect Task Manager, ver. 1.6.0 RC1 build 1.6.0.1
Copyright (c) 2008-2010 y-soft. All rights reserved
http://y-soft.org
ANALYZER: auCDtect: CD records authenticity detector, version 0.8.2
Copyright (c) 2004 Oleg Berngardt. All rights reserved.
Copyright (c) 2004 Alexander Djourik. All rights reserved.
FILE: C.C. Catch - In The Mix - 80's Best.flac
  Size: 443268784 Hash: 5809F5FB531FF7AC0FE6EB474649FF31 Accuracy: -m0
  Conclusion: MPEG 95%
  Signature: 157A3879A51A4A2DD065208C10CE092C7121F10E

Содержание индексной карты (.CUE&#41;

REM GENRE EuroDisco
REM DATE 2002
REM DISCID 9C0DA80B
REM COMMENT "ExactAudioCopy v0.99pb5"
PERFORMER "C.C. Catch"
TITLE "In The Mix - 80's Best"
FILE "C.C. Catch - In The Mix - 80's Best.flac" WAVE
  TRACK 01 AUDIO
    TITLE "Soul Survivor ('98 Rap Version feat. Krayzee)"
    PERFORMER "C.C. Catch"
    INDEX 01 00:00:00
  TRACK 02 AUDIO
    TITLE "I Can Lose My Heart Tonight (Extended Club Remix)"
    PERFORMER "C.C. Catch"
    INDEX 00 03:03:24
    INDEX 01 03:04:10
  TRACK 03 AUDIO
    TITLE "Strangers By Night (Maxi-Version)"
    PERFORMER "C.C. Catch"
    INDEX 00 08:55:14
    INDEX 01 08:55:67
  TRACK 04 AUDIO
    TITLE "One Night's Not Enough (Maxi-Version)"
    PERFORMER "C.C. Catch"
    INDEX 00 14:37:33
    INDEX 01 14:39:31
  TRACK 05 AUDIO
    TITLE "Heartbreak Hotel (Room 69-Mix)"
    PERFORMER "C.C. Catch"
    INDEX 00 19:56:70
    INDEX 01 19:57:08
  TRACK 06 AUDIO
    TITLE "House Of Mystic Lights (Long Version Dance Mix)"
    PERFORMER "C.C. Catch"
    INDEX 00 24:51:11
    INDEX 01 24:52:67
  TRACK 07 AUDIO
    TITLE "Back Seat Of Your Cadillac (Extended Version)"
    PERFORMER "C.C. Catch"
    INDEX 00 29:01:40
    INDEX 01 29:02:14
  TRACK 08 AUDIO
    TITLE "Heartbeat City (Maxi Mix)"
    PERFORMER "C.C. Catch"
    INDEX 00 34:22:36
    INDEX 01 34:24:07
  TRACK 09 AUDIO
    TITLE "Summer Kisses (Extended Version)"
    PERFORMER "C.C. Catch"
    INDEX 00 39:19:16
    INDEX 01 39:20:73
  TRACK 10 AUDIO
    TITLE "Baby I Need Your Love (Long Version)"
    PERFORMER "C.C. Catch"
    INDEX 00 45:28:32
    INDEX 01 45:30:65
  TRACK 11 AUDIO
    TITLE "C.C. Catch-Megamix (Long Version feat. Krayzee)"
    PERFORMER "C.C. Catch"
    INDEX 00 50:15:44
    INDEX 01 50:16:33

Сверка с АккуратРип

[CUETools log; Date: 29.01.2014 20:41:09; Version: 2.1.4]
[CTDB TOCID: F0TOfLFVF2gAAhjMn7NCXkCgtFs-] found.
Track | CTDB Status
  1   | (2/2) Accurately ripped
  2   | (2/2) Accurately ripped
  3   | (2/2) Accurately ripped
  4   | (2/2) Accurately ripped
  5   | (2/2) Accurately ripped
  6   | (2/2) Accurately ripped
  7   | (2/2) Accurately ripped
  8   | (2/2) Accurately ripped
  9   | (2/2) Accurately ripped
10   | (2/2) Accurately ripped
11   | (2/2) Accurately ripped
[AccurateRip ID: 00168bba-00c5ce1c-9c0da80b] found.
Track   [  CRC   |   V2   ] Status
01     [a8e1a8a9|feb99221] (06+03/11) Accurately ripped
02     [56db3eeb|f0252b42] (06+03/11) Accurately ripped
03     [7f6d1aec|caab9a8b] (06+03/11) Accurately ripped
04     [890f6231|6ff387bb] (06+03/11) Accurately ripped
05     [62f12858|d7497291] (06+03/11) Accurately ripped
06     [495fe4e2|c011e383] (06+03/11) Accurately ripped
07     [ff25b089|6bb8e487] (06+03/11) Accurately ripped
08     [7eecaa5b|71cb1197] (06+03/11) Accurately ripped
09     [77c3a951|64a3ce5d] (06+03/11) Accurately ripped
10     [13ac48bb|1aed26f9] (06+03/11) Accurately ripped
11     [98098da7|cd7e87c5] (06+03/11) Accurately ripped
Offsetted by 6:
01     [11920c97] (02/11) Accurately ripped
02     [13307cc3] (02/11) Accurately ripped
03     [f9e6a756] (02/11) Accurately ripped
04     [f70876bd] (02/11) Accurately ripped
05     [9695dbb2] (02/11) Accurately ripped
06     [7b241574] (02/11) Accurately ripped
07     [6e0282cb] (02/11) Accurately ripped
08     [13e62421] (02/11) Accurately ripped
09     [1b750b13] (02/11) Accurately ripped
10     [47f9981d] (02/11) Accurately ripped
11     [970fb1b3] (02/11) Accurately ripped
Track Peak [ CRC32  ] [W/O NULL] [  LOG   ]
--   98,8 [DD9FB16D] [B5D990C3]   CRC32
01   98,8 [C971883D] [04C074CF]
02   98,8 [B6EB6989] [C0D83F02]
03   98,8 [BA5D358E] [AE11562C]
04   96,9 [81FE2226] [FB1D406F]
05   97,0 [B0800C73] [B51ADDCD]
06   88,1 [A791F98B] [D6AB3C2E]
07   98,8 [C0035EF3] [292F0D9F]
08   98,8 [FC6141FC] [7D6C278E]
09   88,1 [8DC639B6] [BAC358C9]
10   98,8 [A1F2E747] [42C86797]
11   97,0 [DBFE6870] [5C9E795B]

Спектр

[Профиль] [ЛС]

Создавать темы 13-Авг-2015 10:41 (спустя 7 месяцев 19 дней)

Топик был перенесен из форума Зарубежная в форум Technopop, Eurodance, Disco
sergej644
 
Показать сообщения:    

Текущее время: Сегодня 14:27

Часовой пояс: GMT



Вы не можете начинать темы
Вы не можете отвечать на сообщения
Вы не можете редактировать свои сообщения
Вы не можете удалять свои сообщения
Вы не можете голосовать в опросах
Вы не можете прикреплять файлы к сообщениям
Вы не можете скачивать файлы