(Melodic Hard Rock, Classic Rock) Carl Sentance - Mind Doctor - 2009 [FLAC, image+.cue, lossless]

 
Автор Сообщение

sergej644 ®

Пол:

Стаж: 4 года 11 месяцев

Сообщений: 6043

Откуда: Soviet Union



Награды: Нет

Торрент-статистика

Создавать темы 06-Июл-2015 15:06

[Цитировать]

-Carl Sentance / Mind Doctor-- Год издания:2009
Страна: UK
Жанр: Melodic Hard Rock, Classic Rock
Продолжительность: 00:49:01-Лейбл издания: Carl Sentance Records
Страна-выпуска диска: UK
Номер по каталогу: СS2009-1
Источник (релизер): 89826219212-Формат: FLAC
Битрейт аудио: lossless
Тип рипа: image+.cue
Наличие сканов в содержимом раздачи: да
-Сольный альбом - Carl Sentance - Mind Doctor (2009) ! Именно он - Carl Sentance, теперь новыЙ фронтмен группы - Nazareth !!! Carl Sentance (р.28 июня 1961г. в Cardiff) первой командой где он начал была - Leading Star, с 1975 по 1978 он на гитаре и вокале. Потом в нескольких местных группах, пока его не заметил - John Deverill и не пригласил в - Persian Risk, группа выпустила один альбом - Rise Up (1986) и распалась.

Трэклист

01.Rain (04:31)
02.Mind Doctor (04:28)
03.Girl's Got Fire (04:05)
04.In My Dreams (03:39)
05.Believe (04:14)
06.Life Goes On (03:39)
07.Revolution (04:08)
08.I Want Your Name (03:37)
09.Don't Walk Away (04:52)
10.Crazy (04:06)
11.Fire Rock (03:37)
12.Old School (04:10)
-

Лог создания рипа

Exact Audio Copy V1.0 beta 6 from 9. April 2015
Отчёт EAC об извлечении, выполненном 30. июня 2015, 15:25
Carl Sentance / Mind Doctor
Дисковод: Optiarc DVD RW AD-7240S   Adapter: 1  ID: 0
Режим чтения                 : Достоверность
Использование точного потока : Да
Отключение кэша аудио        : Нет
Использование указателей C2  : Да
Коррекция смещения при чтении                     : 48
Способность читать области Lead-in и Lead-out     : Нет
Заполнение пропущенных сэмплов тишиной            : Да
Удаление блоков с тишиной в начале и конце        : Нет
При вычислениях CRC использовались нулевые сэмплы : Да
Интерфейс                                         : Встроенный Win32-интерфейс для Win NT/2000
Выходной формат          : Пользовательский кодировщик
Выбранный битрейт        : 1024 kBit/s
Качество                 : Высокий
Добавление ID3-тега      : Да
Утилита сжатия           : C:\Program Files (x86)\Exact Audio Copy\FLAC\FLAC.EXE
Дополнительные параметры : -6 -V -T "ARTIST=%artist%" -T "TITLE=%title%" -T "ALBUM=%albumtitle%" -T "DATE=%year%" -T "TRACKNUMBER=%tracknr%" -T "GENRE=%genre%" -T "COMMENT=%comment%" -T "BAND=%albuminterpret%" -T "ALBUMARTIST=%albuminterpret%" -T "COMPOSER=%composer%" %haslyrics%--tag-from-file=LYRICS="%lyricsfile%"%haslyrics% -T "DISCNUMBER=%cdnumber%" -T "TOTALDISCS=%totalcds%" -T "TOTALTRACKS=%numtracks%" %hascover%--picture="%coverfile%"%hascover% %source% -o %dest%
TOC извлечённого CD
     Трек |   Старт  | Длительность | Начальный сектор | Конечный сектор
    ---------------------------------------------------------------------
       1  |  0:00.05 |    4:30.17   |           5      |      20271
       2  |  4:30.22 |    4:27.58   |       20272      |      40354
       3  |  8:58.05 |    4:04.03   |       40355      |      58657
       4  | 13:02.08 |    3:38.61   |       58658      |      75068
       5  | 16:40.69 |    4:13.32   |       75069      |      94075
       6  | 20:54.26 |    3:38.32   |       94076      |     110457
       7  | 24:32.58 |    4:08.00   |      110458      |     129057
       8  | 28:40.58 |    3:36.32   |      129058      |     145289
       9  | 32:17.15 |    4:51.71   |      145290      |     167185
      10  | 37:09.11 |    4:05.54   |      167186      |     185614
      11  | 41:14.65 |    3:36.05   |      185615      |     201819
      12  | 44:50.70 |    4:09.57   |      201820      |     220551
Характеристики диапазона извлечения и сообщения об ошибках
Выбранный диапазон
     Имя файла C:\Users\Александр\Desktop\Новая папка (2)\Carl Sentance_2009_Mind_Doctor\Carl Sentance - Mind Doctor.wav
     Пиковый уровень 97.7 %
     Скорость извлечения 26.1 X
     Качество диапазона 100.0 %
     CRC теста EE4DC9B1
     CRC копии EE4DC9B1
     Копирование... OK
Ошибок не произошло
AccurateRip: сводка
Трек  1  точность не определена (достоверность 2)  [E6F1EC43], AccurateRip вернул [07FCA533]  (AR v2)
Трек  2  точность не определена (достоверность 2)  [61A88841], AccurateRip вернул [005C8663]  (AR v2)
Трек  3  точность не определена (достоверность 2)  [0FF3E5E7], AccurateRip вернул [48BE20C9]  (AR v2)
Трек  4  точность не определена (достоверность 2)  [61B5E328], AccurateRip вернул [BB77837D]  (AR v2)
Трек  5  точность не определена (достоверность 2)  [BF4F7650], AccurateRip вернул [967BD8A9]  (AR v2)
Трек  6  точность не определена (достоверность 2)  [A0AA7415], AccurateRip вернул [444D0909]  (AR v2)
Трек  7  точность не определена (достоверность 2)  [57590D22], AccurateRip вернул [62156230]  (AR v2)
Трек  8  точность не определена (достоверность 2)  [FC45164F], AccurateRip вернул [7095D9AD]  (AR v2)
Трек  9  точность не определена (достоверность 2)  [FC6441C4], AccurateRip вернул [410E74F5]  (AR v2)
Трек 10  точность не определена (достоверность 2)  [45A2D3DC], AccurateRip вернул [1F0AD1BF]  (AR v2)
Трек 11  точность не определена (достоверность 2)  [9BE33EBF], AccurateRip вернул [EB8A9E5B]  (AR v2)
Трек 12  точность не определена (достоверность 2)  [222D6B76], AccurateRip вернул [93F72569]  (AR v2)
Ни один трек не прошёл проверки на точность
В вашей базе может быть иной вариант штамповки диска
Конец отчёта
---- CUETools DB Plugin V2.1.6
[CTDB TOCID: bnB05O9H1HqTfc_G5lnFv_Sw7aA-] found
Submit result: bnB05O9H1HqTfc_G5lnFv_Sw7aA- has been confirmed
Track | CTDB Status
  1   | (2/2) Accurately ripped
  2   | (2/2) Accurately ripped
  3   | (2/2) Accurately ripped
  4   | (2/2) Accurately ripped
  5   | (2/2) Accurately ripped
  6   | (2/2) Accurately ripped
  7   | (2/2) Accurately ripped
  8   | (2/2) Accurately ripped
  9   | (2/2) Accurately ripped
10   | (2/2) Accurately ripped
11   | (2/2) Accurately ripped
12   | (2/2) Accurately ripped

Индексная карта (non-compilant .cue)

REM GENRE "Hard Rock"
REM DATE 2009
REM DISCID 9A0B7C0C
REM COMMENT "ExactAudioCopy v1.0b6"
PERFORMER "Carl Sentance"
TITLE "Mind Doctor"
FILE "Carl Sentance - Mind Doctor.flac" WAVE
  TRACK 01 AUDIO
    TITLE "Rain"
    PERFORMER "Unknown Artist"
    ISRC GBYGF0875201
    INDEX 00 00:00:00
    INDEX 01 00:00:05
  TRACK 02 AUDIO
    TITLE "Mind Doctor"
    PERFORMER "Unknown Artist"
    ISRC GBYGF0875202
    INDEX 01 04:30:22
  TRACK 03 AUDIO
    TITLE "Girl's Got Fire"
    PERFORMER "Unknown Artist"
    ISRC GBYGF0875203
    INDEX 00 08:56:70
    INDEX 01 08:58:05
  TRACK 04 AUDIO
    TITLE "In My Dreams"
    PERFORMER "Unknown Artist"
    ISRC GBYGF0875204
    INDEX 00 12:56:74
    INDEX 01 13:02:08
  TRACK 05 AUDIO
    TITLE "Believe"
    PERFORMER "Unknown Artist"
    ISRC GBYGF0875205
    INDEX 00 16:39:49
    INDEX 01 16:40:69
  TRACK 06 AUDIO
    TITLE "Life Goes On"
    PERFORMER "Unknown Artist"
    ISRC GBYGF0875206
    INDEX 00 20:53:06
    INDEX 01 20:54:26
  TRACK 07 AUDIO
    TITLE "Revolution"
    PERFORMER "Unknown Artist"
    ISRC GBYGF0875207
    INDEX 00 24:31:24
    INDEX 01 24:32:58
  TRACK 08 AUDIO
    TITLE "I Want Your Name"
    PERFORMER "Unknown Artist"
    ISRC GBYGF0875208
    INDEX 00 28:39:47
    INDEX 01 28:40:58
  TRACK 09 AUDIO
    TITLE "Don't Walk Away"
    PERFORMER "Unknown Artist"
    ISRC GBYGF0875209
    INDEX 00 32:15:10
    INDEX 01 32:17:15
  TRACK 10 AUDIO
    TITLE "Crazy"
    PERFORMER "Unknown Artist"
    ISRC GBYGF0875210
    INDEX 00 37:07:60
    INDEX 01 37:09:11
  TRACK 11 AUDIO
    TITLE "Fire Rock"
    PERFORMER "Unknown Artist"
    ISRC GBYGF0875211
    INDEX 00 41:14:64
    INDEX 01 41:14:65
  TRACK 12 AUDIO
    TITLE "Old School"
    PERFORMER "Unknown Artist"
    ISRC GBYGF0875212
    INDEX 00 44:49:61
    INDEX 01 44:50:70

Информация об исполнителе:

Carl Sentance - после зтого поработал с -Tokyo Blade, потом в команде - The Geezer Butler Band, которую организовал басист - Geezer Butler (Black Sabbath), но команда не сумела получить контракт на запись и тоже развалилась, в 1980 его пригласил - Paul Chapman (Lone Star, UFO, Waysted), он собрал новую команду - Ghost, но и они тоже никогда не поднялись высоко в основном потому, что их игнорировала звукозаписывающая промышленность (хотя релизы можно найти в посмертных архивах -Paul Chapman). Carl Sentance - попытался создать американскую версию - Persian Risk с гитаристом - Mark Lanoue, но опять неудача. Вернувшись в Великобританию, с 1995 по 1999 он поёт в различных мюзиклах в главных ролях - Judas в - Jesus Christ Superstar, а так же - Sky в - Guys and Dolls, а с 1999-2001 он вокалист швейцарской рок-группы - Krokus !!! В 2005 году Sentance участвует - Whole Lotta Metal, которую организовал - Tony Martin и другие британские металл сессионные музыканты,которые собрались для гастролей и исполнения кавер-версий. В 2006 году принимает участие в проекте - Power Project. который организовали -Carlos Cavazo (Quiet Riot, Ratt), Jeff Pilson (Dokken, Dio, Foreigner) и Vinny Appice (Black Sabbath, Dio), в качестве вокалиста на альбоме - DINOSAURS (2006). В качестве вокалиста он участвует на концертах - Don Airey & Friends, его можно услышать с 2008 на сольных альбомах - Don Airey, таких как - A Light in the Sky (2008), All out in Carl Sentance (2011) и Keyed Up (2014), как автора песен и певеца. Именно работа с - Don Airey (я думаю его представлять не надо, так как кроме Deep Purple и сольных проектов он поработал и поучаствовал много где и много с кем !!!) подтолкнула - Carl Sentance на создание сольного альбома. Во время записи - Mind Doctor, так случилось, что Карл Сентанс потерял голос, но через логопедии и уроки пения, он вернулся через год и завершил запись своего первого сольного альбома.
Этот альбом он записал с помощью басиста - Chris Childs (Thunder), ударника - Harry James (Thunder) и на клавишах - Don Airey (Deep Purple), а сам - Carl Sentance кроме вокала ещё гитара !!! Успех этого альбома, подтолкнул на мысль о том, возродить группу- Persian Risk . После того, как бывшие участники группы отказались от этой попытки, - Carl Sentance нашел новых коллег-музыкантов для новой редакции команды в лице - Howie G. (guitar), Jason Banks (guitar), Wayne Banks (bass) и Tim Brown (drums). Осенью 2012 года, вышел альбом - Once A King, который был очень хорошо принят критиками и слушателями !!! Но это уже другая история !!!
Британский певец Carl Sentance бывший фронтмен PERSIAN RISK, THE GEEZER BUTLER BAND и Швейцарской рок легенды KROKUS (1999-2002). "Mind Doctor" это его первый сольнй альбом, он вышел при поддержке такиго великого музыканта, как Chris Childs (который также сопродюсером альбома) и Harry James из THUNDER. В результате получился первоклассный рок-альбома в британском стиле и со старой школой, звучащий на уровне THUNDER, DEEP PURPLE, RAINBOW и LITTLE ANGELS.
А вобщем это великолепный Melodic Rock с отличными гитарными рифами.
После недавнего увольнения всего год проработавшего в группе Linton Osborne’a, NAZARETH объявили имя следующего преемника классического фронтмена группы Dan’a McCafferty, ушедшего на покой по состоянию здоровья - им стал вокалист уэльской NWOBHM группы PERSIAN RISK Carl Sentance, также известный по работе с KROKUS, TOKYO BLADE и сольным проектам Geezer Butler’a (BLACK SABBATH), Paul Chapman’a (UFO) и Don’a Airey (DEEP PURPLE).
-Благодарность за информацию yurah31
--Не забываем говорить
[Профиль] [ЛС]
Показать сообщения:    

Текущее время: Сегодня 20:35

Часовой пояс: GMT



Вы не можете начинать темы
Вы не можете отвечать на сообщения
Вы не можете редактировать свои сообщения
Вы не можете удалять свои сообщения
Вы не можете голосовать в опросах
Вы не можете прикреплять файлы к сообщениям
Вы не можете скачивать файлы