(Hard Rock,Heavy Metal) Burning Rain - Epic Obsession (Japanese Edition) - 2013, FLAC (image + .cue), lossless

 
Автор Сообщение

sergej644 ®

Пол:

Стаж: 4 года 11 месяцев

Сообщений: 6046

Откуда: Soviet Union



Награды: Нет

Торрент-статистика

Создавать темы 29-Июл-2014 17:09

[Цитировать]

-Burning Rain - Epic Obsession (Japanese Edition)- Страна: USA || Жанр: Hard Rock,Heavy Metal || Год выпуска: 2013 || Формат: FLAC (image + .cue) || Битрейт аудио: lossless || Продолжительность: 01:12:28- -

треклист

01. Sweet Little Baby Thing (03:49)
02. The Cure (04:18)
03. Till You Die (03:58)
04. Heaven Gets Me By (04:47)
05. Pray Out Loud (04:22)
06. Our Time Is Gonna Come (05:24)
07. Too Hard To Break (05:38)
08. My Lust Your Fate (05:11)
09. Made For Your Heart (06:33)
10. Ride The Monkey (04:12)
11. Out In The Cold Again (05:41)
12. When Can I Believe In Love (05:32)
13. Fell Outa Love (02:41) (bonus track)
14. Made For Your Heart (Candlelight Version) (06:01) (bonus track)
15. When Can I Believe In Love (Acoustic Version) (04:14) (bonus track)

лог создания рипа

Exact Audio Copy V1.0 beta 3 from 29. August 2011
EAC extraction logfile from 12. June 2013, 22:41
Burning Rain / EPIC OBSESSION
Used drive  : PIONEER DVD-RW  DVR-115D   Adapter: 1  ID: 0
Read mode               : Secure
Utilize accurate stream : Yes
Defeat audio cache      : Yes
Make use of C2 pointers : No
Read offset correction                      : 48
Overread into Lead-In and Lead-Out          : No
Fill up missing offset samples with silence : Yes
Delete leading and trailing silent blocks   : No
Null samples used in CRC calculations       : Yes
Used interface                              : Native Win32 interface for Win NT & 2000
Used output format : Internal WAV Routines
Sample format      : 44.100 Hz; 16 Bit; Stereo
TOC of the extracted CD
     Track |   Start  |  Length  | Start sector | End sector
    ---------------------------------------------------------
        1  |  0:00.00 |  3:49.66 |         0    |    17240
        2  |  3:49.66 |  4:18.46 |     17241    |    36636
        3  |  8:08.37 |  3:58.26 |     36637    |    54512
        4  | 12:06.63 |  4:47.09 |     54513    |    76046
        5  | 16:53.72 |  4:22.07 |     76047    |    95703
        6  | 21:16.04 |  5:24.55 |     95704    |   120058
        7  | 26:40.59 |  5:38.48 |    120059    |   145456
        8  | 32:19.32 |  5:11.46 |    145457    |   168827
        9  | 37:31.03 |  6:33.07 |    168828    |   198309
       10  | 44:04.10 |  4:12.39 |    198310    |   217248
       11  | 48:16.49 |  5:41.71 |    217249    |   242894
       12  | 53:58.45 |  5:32.03 |    242895    |   267797
       13  | 59:30.48 |  2:41.17 |    267798    |   279889
       14  | 62:11.65 |  6:01.67 |    279890    |   307031
       15  | 68:13.57 |  4:14.22 |    307032    |   326103
Range status and errors
Selected range
     Filename C:\Music\Burning Rain - Epic Obsession (Japanese Edition) - 2013\Burning Rain - Epic Obsession.wav
     Peak level 97.5 %
     Extraction speed 7.8 X
     Range quality 100.0 %
     Test CRC 3A96DAE8
     Copy CRC 3A96DAE8
     Copy OK
No errors occurred
AccurateRip summary
Track  1  not present in database
Track  2  not present in database
Track  3  not present in database
Track  4  not present in database
Track  5  not present in database
Track  6  not present in database
Track  7  not present in database
Track  8  not present in database
Track  9  not present in database
Track 10  not present in database
Track 11  not present in database
Track 12  not present in database
Track 13  not present in database
Track 14  not present in database
Track 15  not present in database
None of the tracks are present in the AccurateRip database
End of status report

содержание индексной карты *cue

REM GENRE Metal
REM DATE 2013
REM DISCID CC10FC0F
REM COMMENT "ExactAudioCopy v1.0b3"
PERFORMER "Burning Rain"
TITLE "EPIC OBSESSION"
FILE "Burning Rain - Epic Obsession.flac" WAVE
  TRACK 01 AUDIO
    TITLE "SWEET LITTLE BABY THING"
    PERFORMER "Burning Rain"
    INDEX 01 00:00:00
  TRACK 02 AUDIO
    TITLE "THE CURE"
    PERFORMER "Burning Rain"
    INDEX 00 03:49:25
    INDEX 01 03:49:66
  TRACK 03 AUDIO
    TITLE "TILL YOU DIE"
    PERFORMER "Burning Rain"
    INDEX 00 08:08:08
    INDEX 01 08:08:37
  TRACK 04 AUDIO
    TITLE "HEAVEN GETS ME BY"
    PERFORMER "Burning Rain"
    INDEX 00 12:05:24
    INDEX 01 12:06:63
  TRACK 05 AUDIO
    TITLE "PRAY OUT LOUD"
    PERFORMER "Burning Rain"
    INDEX 00 16:53:26
    INDEX 01 16:53:72
  TRACK 06 AUDIO
    TITLE "OUR TIME IS GONNA COME"
    PERFORMER "Burning Rain"
    INDEX 00 21:15:31
    INDEX 01 21:16:04
  TRACK 07 AUDIO
    TITLE "TOO HARD TO BREAK"
    PERFORMER "Burning Rain"
    INDEX 00 26:40:52
    INDEX 01 26:40:59
  TRACK 08 AUDIO
    TITLE "MY LUST YOUR FATE"
    PERFORMER "Burning Rain"
    INDEX 00 32:18:05
    INDEX 01 32:19:32
  TRACK 09 AUDIO
    TITLE "MADE FOR YOUR HEART"
    PERFORMER "Burning Rain"
    INDEX 00 37:30:21
    INDEX 01 37:31:03
  TRACK 10 AUDIO
    TITLE "RIDE THE MONKEY"
    PERFORMER "Burning Rain"
    INDEX 00 44:03:59
    INDEX 01 44:04:10
  TRACK 11 AUDIO
    TITLE "OUT IN THE COLD AGAIN"
    PERFORMER "Burning Rain"
    INDEX 00 48:15:21
    INDEX 01 48:16:49
  TRACK 12 AUDIO
    TITLE "WHEN CAN I BELIEVE IN LOVE"
    PERFORMER "Burning Rain"
    INDEX 00 53:58:03
    INDEX 01 53:58:45
  TRACK 13 AUDIO
    TITLE "FELL OUTA LOVE"
    PERFORMER "Burning Rain"
    INDEX 00 59:24:52
    INDEX 01 59:30:48
  TRACK 14 AUDIO
    TITLE "MADE FOR YOUR HEART (CANDLELIGHT VERSION)"
    PERFORMER "Burning Rain"
    INDEX 00 62:06:54
    INDEX 01 62:11:65
  TRACK 15 AUDIO
    TITLE "WHEN CAN I BELIEVE IN LOVE (ACOUSTIC VERSION)"
    PERFORMER "Burning Rain"
    INDEX 00 68:12:49
    INDEX 01 68:13:57

Доп. информация

Burning Rain — американская хард-рок-группа, основанная гитаристом Дагом Олдричем (экс-Lion, Bad Moon Rising, в дальнейшем — Dio, Whitesnake) и певцом Китом Сент-Джоном (экс-Medicine Wheel, Sun King, Big Trouble, St. John) в 1998 году. Также в состав группы вошли сессионный барабанщик Алекс Макарович (записывался со Steelheart) и бас-гитарист Йен Майо (экс-Hericane Alice и Bangalore Choir, также играл с Олдричем в Bad Moon Rising). Периодически с группой сотрудничал клавишник Эдвард Рот (Impellitteri).
Дебютный альбом «Burning Rain» был выпущен в марте 1999 года японским лейблом «Pony Canyon». Второй альбом «Pleasure to Burn» вышел в сентябре 2000 года (также на «Pony Canyon»). В июле 1999 года Burning Rain провели короткий, но успешный тур по Японии, откуда известия о новой группе дошли до Европы. Результатом стал контракт с английским лейблом «Z Records», который переиздал оба альбома Burning Rain для европейского рынка. 6 мая 2001 года Burning Rain выступили в Манчестере на фестивале «Z-Rock», который спонсировался лейблом. Вместо Макаровича, который покинул группу месяцем раньше, за барабанами сидел Джеки Рамос (экс-Hericane Alice, Bangalore Choir, Bad Moon Rising).
В начале 2002 года Даг Олдрич присоединился к группе Dio, а в конце 2002 года также официально вошел в состав Whitesnake. Кит Сент-Джон, в свою очередь, был заявлен вокалистом в возрожденной группе Montrose. В связи с этим Burning Rain приостановили свою деятельность. Тем не менее, официального заявления о роспуске группы не было, и формально она существует до сих пор. В октябре 2004 года Burning Rain подписали контракт с итальянским лейблом «Frontiers Records» на выпуск нового студийного альбома, который, однако, так и не вышел. В 2007 году Олдрич и Сент-Джон работали над новыми треками Burning Rain, которые также не увидели свет.
В настоящее время Даг Олдрич является постоянным гитаристом Whitesnake. Кит Сент-Джон в 2009 году участвовал в качестве приглашенного вокалиста в записи альбома экс-гитариста канадской группы Heart Ховарда Лиса «Secret Weapon».
В начале 2013 года Олдрич объявил о возрождении группы и выходе 21 мая 2013 года нового альбома "Epic Obsession". Прокомментировал он решение так: "Мне кажется, у нас есть несколько песен, которые не пройдут незамеченными. Мы используем мелодик-блюз-роковый подход к саунду. Это единственное, что я делал вне WHITESNAKE в последние 10 лет"
[Профиль] [ЛС]
Показать сообщения:    

Текущее время: Сегодня 13:51

Часовой пояс: GMT



Вы не можете начинать темы
Вы не можете отвечать на сообщения
Вы не можете редактировать свои сообщения
Вы не можете удалять свои сообщения
Вы не можете голосовать в опросах
Вы не можете прикреплять файлы к сообщениям
Вы не можете скачивать файлы